Поиск

(Smooth Jazz) Euge Groove – Дискография 5 альбомов – 2000-2007, FLAC (tracks + .cue), lossless

Треклист:
Euge Groove – 5 альбомов (+ обложки)
Страна: США
Жанр: Smooth Jazz
Год выпуска: 2000 - 2007
Формат: FLAC (tracks + .cue)
Продолжительность: 4:04:42
Доп. информация:
Стивен Юджин Гроув (Steven Eugene Grove) - американский smooth джазовый саксофонист, более известный как Euge Groove. Родился в Хэджерстаун, Мэриленд 27 Ноября 1962 года. Окончил музыкальный университет в Майами в 1984 году. До выпуска своего дебютного альбома в 2000 году Юджин замещал Ричарда Элиота в группе Tower of Power, когда тот покинул её для занятий сольной карьерой, а также часто привлекался как сессионный музыкант для работы с различными поп-исполнителями, в том числе группой Exposé. Имя Euge Groove состоит из сокращения от его второго имени и из часто неправильного произношения его фамилии. По легенде его так окрестили фанаты во время европейского турне, но, по его собственному признанию, сценический псевдоним ему придумала… теща. Первые два альбома были выпущены Warner Music, а последующие на Narada Jazz.
Официальный сайт http://www.eugegroove.com/


Euge Groove 2000
Треклист:
• Romeo and Juliet (Grove) 4:56
• Sneak A Peek (Egiz/Grove) 5:05
• Vinyl (Grove) 4:29
• Give In To Me (Chasez/Egiz/Grove) 4:41
• Another Sad Love Song (Babyface) 4:25
• Tenderhearted Lover (Stoddart) 4:53
• Truly Emotional (Egiz/Grove) 4:56
• Lay It Down (Egiz/Grove) 4:06
• Summer Stroll (Egiz/Grove) 4:58
• Last Song (Grove) 5:11
 
Отчёт EAC
Exact Audio Copy V0.99 prebeta 4 from 23. January 2008
EAC extraction logfile from 13. April 2008, 1:18
Euge Groove / Euge Groove
Used drive : PIONEER DVD-RW DVR-111D Adapter: 2 ID: 1
Read mode : Secure
Utilize accurate stream : Yes
Defeat audio cache : Yes
Make use of C2 pointers : No
Read offset correction : 48
Overread into Lead-In and Lead-Out : No
Fill up missing offset samples with silence : Yes
Delete leading and trailing silent blocks : No
Null samples used in CRC calculations : Yes
Used interface : Native Win32 interface for Win NT & 2000
Gap handling : Appended to previous track
Used output format : User Defined Encoder
Selected bitrate : 128 kBit/s
Quality : High
Add ID3 tag : No
Command line compressor : C:\Program Files\FLAC\flac.exe
Additional command line options : -8 -V -T "ARTIST=%a" -T "TITLE=%t" -T "ALBUM=%g" -T "DATE=%y" -T "TRACKNUMBER=%n" -T "GENRE=%m" -T "COMMENT=EAC FLAC -8" %s
Use compression offset : 2257
TOC of the extracted CD
Track | Start | Length | Start sector | End sector
---------------------------------------------------------
1 | 0:00.00 | 4:56.25 | 0 | 22224
2 | 4:56.25 | 5:05.35 | 22225 | 45134
3 | 10:01.60 | 4:29.42 | 45135 | 65351
4 | 14:31.27 | 4:41.03 | 65352 | 86429
5 | 19:12.30 | 4:25.55 | 86430 | 106359
6 | 23:38.10 | 4:53.47 | 106360 | 128381
7 | 28:31.57 | 4:56.05 | 128382 | 150586
8 | 33:27.62 | 4:06.03 | 150587 | 169039
9 | 37:33.65 | 4:58.25 | 169040 | 191414
10 | 42:32.15 | 5:11.72 | 191415 | 214811
Track 1
Filename F:\Euge Groove - 2001 - Euge Groove\01 - Romeo & Juliet.wav
Pre-gap length 0:00:02.00
Peak level 99.8 %
Track quality 100.0 %
Test CRC 98B8AFA1
Copy CRC 98B8AFA1
Track not present in AccurateRip database
Copy OK
Track 2
Filename F:\Euge Groove - 2001 - Euge Groove\02 - Sneak A Peak.wav
Pre-gap length 0:00:00.02
Peak level 99.8 %
Track quality 100.0 %
Test CRC 5F9B1B12
Copy CRC 5F9B1B12
Track not present in AccurateRip database
Copy OK
Track 3
Filename F:\Euge Groove - 2001 - Euge Groove\03 - Vinyl.wav
Pre-gap length 0:00:00.02
Peak level 99.8 %
Track quality 100.0 %
Test CRC 4DB1C952
Copy CRC 4DB1C952
Track not present in AccurateRip database
Copy OK
Track 4
Filename F:\Euge Groove - 2001 - Euge Groove\04 - Give In To Me.wav
Pre-gap length 0:00:00.02
Peak level 99.8 %
Track quality 100.0 %
Test CRC 8AA551E6
Copy CRC 8AA551E6
Track not present in AccurateRip database
Copy OK
Track 5
Filename F:\Euge Groove - 2001 - Euge Groove\05 - Another Sad Love Song.wav
Pre-gap length 0:00:00.02
Peak level 99.8 %
Track quality 100.0 %
Test CRC 39269AE9
Copy CRC 39269AE9
Track not present in AccurateRip database
Copy OK
Track 6
Filename F:\Euge Groove - 2001 - Euge Groove\06 - Tenderhearted Lover.wav
Pre-gap length 0:00:00.02
Peak level 99.8 %
Track quality 100.0 %
Test CRC 343541F9
Copy CRC 343541F9
Track not present in AccurateRip database
Copy OK
Track 7
Filename F:\Euge Groove - 2001 - Euge Groove\07 - Truly Emotional.wav
Pre-gap length 0:00:00.02
Peak level 99.8 %
Track quality 100.0 %
Test CRC 13DE65D3
Copy CRC 13DE65D3
Track not present in AccurateRip database
Copy OK
Track 8
Filename F:\Euge Groove - 2001 - Euge Groove\08 - Lay It Down.wav
Pre-gap length 0:00:00.02
Peak level 99.8 %
Track quality 99.9 %
Test CRC 85AB3651
Copy CRC 85AB3651
Track not present in AccurateRip database
Copy OK
Track 9
Filename F:\Euge Groove - 2001 - Euge Groove\09 - Summer Stroll.wav
Pre-gap length 0:00:00.02
Peak level 99.8 %
Track quality 100.0 %
Test CRC 367BA4BD
Copy CRC 367BA4BD
Track not present in AccurateRip database
Copy OK
Track 10
Filename F:\Euge Groove - 2001 - Euge Groove\10 - The Last Song.wav
Pre-gap length 0:00:00.02
Peak level 99.8 %
Track quality 100.0 %
Test CRC 23A416D9
Copy CRC 23A416D9
Track not present in AccurateRip database
Copy OK
None of the tracks are present in the AccurateRip database
No errors occurred
End of status report
 
Вердикт AudioCheсker’а
AUDIOCHECKER v1.2 - by Dester - opdester@freemail.hu
~~~~~~~~~~~~~~~~~
01 -===- F:\Euge Groove - 2001 - Euge Groove\01 - Romeo & Juliet.flac
Extracted successfully
Conclusion: This track looks like CDDA with probability 100%
02 -===- F:\Euge Groove - 2001 - Euge Groove\02 - Sneak A Peak.flac
Extracted successfully
Conclusion: This track looks like CDDA with probability 99%
03 -===- F:\Euge Groove - 2001 - Euge Groove\03 - Vinyl.flac
Extracted successfully
Conclusion: This track looks like CDDA with probability 100%
04 -===- F:\Euge Groove - 2001 - Euge Groove\04 - Give In To Me.flac
Extracted successfully
Conclusion: This track looks like CDDA with probability 100%
05 -===- F:\Euge Groove - 2001 - Euge Groove\05 - Another Sad Love Song.flac
Extracted successfully
Conclusion: This track looks like CDDA with probability 100%
06 -===- F:\Euge Groove - 2001 - Euge Groove\06 - Tenderhearted Lover.flac
Extracted successfully
Conclusion: This track looks like CDDA with probability 100%
07 -===- F:\Euge Groove - 2001 - Euge Groove\07 - Truly Emotional.flac
Extracted successfully
Conclusion: This track looks like CDDA with probability 100%
08 -===- F:\Euge Groove - 2001 - Euge Groove\08 - Lay It Down.flac
Extracted successfully
Conclusion: This track looks like CDDA with probability 100%
09 -===- F:\Euge Groove - 2001 - Euge Groove\09 - Summer Stroll.flac
Extracted successfully
Conclusion: This track looks like CDDA with probability 100%
10 -===- F:\Euge Groove - 2001 - Euge Groove\10 - The Last Song.flac
Extracted successfully
Conclusion: This track looks like CDDA with probability 100%



Play Date 2002
Треклист:
• Slam Dunk (Steve Grove/Paul Brown/David Kahlid Woods) 3:48
• From The Top (Steve Grove/Michael Egiz) 5:52
• Gonna Be Alright (Steve Grove) 4:32
• Let's Get It On (Marvin Gaye/Edwards B. Townsend) 4:40
• Rewind (Steve Grove) 4:44
• Love Me (Steve Grove/Michael Egizi; Lyrics: Steve Grove) 4:40
• Hide and Seek (Steve Grove/Michael Egizi) 4:20
• Belle Maria (Steve Grove) 4:23
• Play Date (Steve Grove) 5:58
• With You I'd Believe (Steve Grove) 5:48
 
Отчёт EAC
Exact Audio Copy V0.99 prebeta 4 from 23. January 2008
EAC extraction logfile from 19. April 2008, 21:59
Euge Groove / Play Date
Used drive : PIONEER DVD-RW DVR-111D Adapter: 2 ID: 1
Read mode : Secure
Utilize accurate stream : Yes
Defeat audio cache : Yes
Make use of C2 pointers : No
Read offset correction : 48
Overread into Lead-In and Lead-Out : Yes
Fill up missing offset samples with silence : Yes
Delete leading and trailing silent blocks : No
Null samples used in CRC calculations : Yes
Used interface : Native Win32 interface for Win NT & 2000
Gap handling : Appended to previous track
Used output format : User Defined Encoder
Selected bitrate : 128 kBit/s
Quality : High
Add ID3 tag : No
Command line compressor : C:\Program Files\FLAC\flac.exe
Additional command line options : -8 -V -T "ARTIST=%a" -T "TITLE=%t" -T "ALBUM=%g" -T "DATE=%y" -T "TRACKNUMBER=%n" -T "GENRE=%m" -T "COMMENT=EAC FLAC -8" %s
Use compression offset : 2257
TOC of the extracted CD
Track | Start | Length | Start sector | End sector
---------------------------------------------------------
1 | 0:00.00 | 3:48.52 | 0 | 17151
2 | 3:48.52 | 5:52.30 | 17152 | 43581
3 | 9:41.07 | 4:33.13 | 43582 | 64069
4 | 14:14.20 | 4:40.72 | 64070 | 85141
5 | 18:55.17 | 4:37.38 | 85142 | 105954
6 | 23:32.55 | 4:40.70 | 105955 | 127024
7 | 28:13.50 | 4:21.00 | 127025 | 146599
8 | 32:34.50 | 4:23.10 | 146600 | 166334
9 | 36:57.60 | 5:53.50 | 166335 | 192859
10 | 42:51.35 | 5:48.00 | 192860 | 218959
Track 1
Filename F:\Euge Groove Discography 00-07\Euge Groove - 2002 - Play Date\01 - Slam Dunk.wav
Pre-gap length 0:00:02.00
Peak level 98.5 %
Track quality 100.0 %
Test CRC A4A4BB73
Copy CRC A4A4BB73
Cannot be verified as accurate (confidence 4) [AFBB2D70], AccurateRip returned [85E5649C]
Copy OK
Track 2
Filename F:\Euge Groove Discography 00-07\Euge Groove - 2002 - Play Date\02 - From the Top.wav
Peak level 98.6 %
Track quality 100.0 %
Test CRC BABBC0B6
Copy CRC BABBC0B6
Cannot be verified as accurate (confidence 5) [CC669D24], AccurateRip returned [6EEE30FA]
Copy OK
Track 3
Filename F:\Euge Groove Discography 00-07\Euge Groove - 2002 - Play Date\03 - Gonna B Alright.wav
Peak level 99.6 %
Track quality 100.0 %
Test CRC 16018190
Copy CRC 16018190
Cannot be verified as accurate (confidence 4) [9671D1EA], AccurateRip returned [BDBBA523]
Copy OK
Track 4
Filename F:\Euge Groove Discography 00-07\Euge Groove - 2002 - Play Date\04 - Let's Get It On.wav
Peak level 99.7 %
Track quality 100.0 %
Test CRC 0F9A9900
Copy CRC 0F9A9900
Cannot be verified as accurate (confidence 4) [5755B7E9], AccurateRip returned [29B800C8]
Copy OK
Track 5
Filename F:\Euge Groove Discography 00-07\Euge Groove - 2002 - Play Date\05 - Rewind.wav
Peak level 99.8 %
Track quality 100.0 %
Test CRC B8BCF316
Copy CRC B8BCF316
Cannot be verified as accurate (confidence 4) [F1B3A87D], AccurateRip returned [E3298569]
Copy OK
Track 6
Filename F:\Euge Groove Discography 00-07\Euge Groove - 2002 - Play Date\06 - Love Me.wav
Peak level 97.6 %
Track quality 99.9 %
Test CRC 408787DD
Copy CRC 408787DD
Cannot be verified as accurate (confidence 4) [BE33CFE8], AccurateRip returned [EA9679FE]
Copy OK
Track 7
Filename F:\Euge Groove Discography 00-07\Euge Groove - 2002 - Play Date\07 - Hide and Seek.wav
Peak level 98.9 %
Track quality 99.9 %
Test CRC C47C3E94
Copy CRC C47C3E94
Cannot be verified as accurate (confidence 4) [56A6E730], AccurateRip returned [445B7397]
Copy OK
Track 8
Filename F:\Euge Groove Discography 00-07\Euge Groove - 2002 - Play Date\08 - Belle Mania.wav
Peak level 99.7 %
Track quality 100.0 %
Test CRC 188EC628
Copy CRC 188EC628
Cannot be verified as accurate (confidence 4) [4A6CF4E4], AccurateRip returned [FDA98599]
Copy OK
Track 9
Filename F:\Euge Groove Discography 00-07\Euge Groove - 2002 - Play Date\09 - Play Date.wav
Peak level 99.7 %
Track quality 99.9 %
Test CRC B89D45BB
Copy CRC B89D45BB
Cannot be verified as accurate (confidence 4) [337820CC], AccurateRip returned [3C4271FB]
Copy OK
Track 10
Filename F:\Euge Groove Discography 00-07\Euge Groove - 2002 - Play Date\10 - With You I'd Believe.wav
Peak level 99.7 %
Track quality 99.9 %
Test CRC DBB89287
Copy CRC DBB89287
Cannot be verified as accurate (confidence 4) [181AF64F], AccurateRip returned [3E70B66E]
Copy OK
No tracks could be verified as accurate
You may have a different pressing from the one(s) in the database
No errors occurred
End of status report
 
Вердикт AudioCheсker’а
AUDIOCHECKER v1.2 - by Dester - opdester@freemail.hu
~~~~~~~~~~~~~~~~~
01 -===- F:\Euge Groove Discography 00-07\Euge Groove - 2002 - Play Date\01 - Slam Dunk.flac
Extracted successfully
Conclusion: This track looks like CDDA with probability 99%
02 -===- F:\Euge Groove Discography 00-07\Euge Groove - 2002 - Play Date\02 - From the Top.flac
Extracted successfully
Conclusion: This track looks like CDDA with probability 100%
03 -===- F:\Euge Groove Discography 00-07\Euge Groove - 2002 - Play Date\03 - Gonna B Alright.flac
Extracted successfully
Conclusion: This track looks like CDDA with probability 100%
04 -===- F:\Euge Groove Discography 00-07\Euge Groove - 2002 - Play Date\04 - Let's Get It On.flac
Extracted successfully
Conclusion: This track looks like CDDA with probability 100%
05 -===- F:\Euge Groove Discography 00-07\Euge Groove - 2002 - Play Date\05 - Rewind.flac
Extracted successfully
Conclusion: This track looks like CDDA with probability 100%
06 -===- F:\Euge Groove Discography 00-07\Euge Groove - 2002 - Play Date\06 - Love Me.flac
Extracted successfully
Conclusion: This track looks like CDDA with probability 100%
07 -===- F:\Euge Groove Discography 00-07\Euge Groove - 2002 - Play Date\07 - Hide and Seek.flac
Extracted successfully
Conclusion: This track looks like CDDA with probability 100%
08 -===- F:\Euge Groove Discography 00-07\Euge Groove - 2002 - Play Date\08 - Belle Mania.flac
Extracted successfully
Conclusion: This track looks like CDDA with probability 100%
09 -===- F:\Euge Groove Discography 00-07\Euge Groove - 2002 - Play Date\09 - Play Date.flac
Extracted successfully
Conclusion: This track looks like CDDA with probability 100%
10 -===- F:\Euge Groove Discography 00-07\Euge Groove - 2002 - Play Date\10 - With You I'd Believe.flac
Extracted successfully
Conclusion: This track looks like CDDA with probability 100%



Livin’ Large 2004
Треклист:
• Don't Let Me Be Lonely Tonight (James Taylor) 2:58
• Livin' Large (Jeff Carruthers, Darin Black, Steve Grove, Paul Brown) 4:30
• XXL (David Woods, Steve Grove, Paul Brown ) 4:3218
• Take You Higher (Johnny Britt, Steve Grove, Paul Brown) 5:23
• Thank You (Falettinme Be Mice Elf Agin) feat. JBS (Stewart Sylvester) 4:29
• The Gift (Steve Grove) 5:26
• Too Cool (Steve Grove) 5:57
• Talk To Me (Steve Grove) 5:01
• Silhouette (Steve Grove, Paul Brown, Rick Braun, Roberto Vally) 5:08
• Cabolicious (Steve Grove, Ollie Marland) 5:10
• Thank You (Falettinme Be Mice Elf Agin) Instrumental Version (Stewart Sylvester) 4:27
 
Отчёт EAC
EAC extraction logfile from 6. May 2007, 19:26 for CD
Euge Groove / Livin' Large
Used drive : TSSTcorpCD/DVDW SH-S182M Adapter: 2 ID: 0
Read mode : Secure with NO C2, accurate stream, disable cache
Read offset correction : 6
Overread into Lead-In and Lead-Out : No
Used output format : C:\EAC\flac-1.1.2-win\bin\flac.exe (User Defined Encoder)
320 kBit/s
Additional command line options : -V -8 -T "artist=%a" -T "title=%t" -T "album=%g" -T "date=%y" -T "tracknumber=%n" -T "genre=%m" %s
Other options :
Fill up missing offset samples with silence : Yes
Delete leading and trailing silent blocks : No
Installed external ASPI interface
Track 1
Filename E:\Euge Groove - Livin' Large (2004) [FLAC]\01 - Don't Let Me Be Lonely Tonight.wav
Pre-gap length 0:00:02.00
Peak level 93.9 %
Track quality 100.0 %
Test CRC A20DAEF3
Copy CRC A20DAEF3
Copy OK
Track 2
Filename E:\Euge Groove - Livin' Large (2004) [FLAC]\02 - Livin' Large.wav
Peak level 99.8 %
Track quality 100.0 %
Test CRC 49A58338
Copy CRC 49A58338
Copy OK
Track 3
Filename E:\Euge Groove - Livin' Large (2004) [FLAC]\03 - XXL.wav
Peak level 95.2 %
Track quality 100.0 %
Test CRC D6D53A53
Copy CRC D6D53A53
Copy OK
Track 4
Filename E:\Euge Groove - Livin' Large (2004) [FLAC]\04 - Take You Higher.wav
Peak level 97.5 %
Track quality 100.0 %
Test CRC 821D0AC3
Copy CRC 821D0AC3
Copy OK
Track 5
Filename E:\Euge Groove - Livin' Large (2004) [FLAC]\05 - Thank You (Falettinme Be Mice Elf Agin).wav
Peak level 97.5 %
Track quality 99.9 %
Test CRC 2C232379
Copy CRC 2C232379
Copy OK
Track 6
Filename E:\Euge Groove - Livin' Large (2004) [FLAC]\06 - The Gift.wav
Peak level 97.1 %
Track quality 100.0 %
Test CRC 6460B334
Copy CRC 6460B334
Copy OK
Track 7
Filename E:\Euge Groove - Livin' Large (2004) [FLAC]\07 - Too Cool.wav
Peak level 98.6 %
Track quality 100.0 %
Test CRC ECB6958E
Copy CRC ECB6958E
Copy OK
Track 8
Filename E:\Euge Groove - Livin' Large (2004) [FLAC]\08 - Talk To Me.wav
Peak level 97.5 %
Track quality 99.9 %
Test CRC 5C99FD74
Copy CRC 5C99FD74
Copy OK
Track 9
Filename E:\Euge Groove - Livin' Large (2004) [FLAC]\09 - Silhouette.wav
Peak level 96.7 %
Track quality 100.0 %
Test CRC F43FFEC7
Copy CRC F43FFEC7
Copy OK
Track 10
Filename E:\Euge Groove - Livin' Large (2004) [FLAC]\10 - Cabolicious.wav
Peak level 97.5 %
Track quality 100.0 %
Test CRC 1DF5CD04
Copy CRC 1DF5CD04
Copy OK
Track 11
Filename E:\Euge Groove - Livin' Large (2004) [FLAC]\11 - Thank You (Falettinme Be Mice Elf Agin) Instrumental.wav
Peak level 97.3 %
Track quality 100.0 %
Test CRC C1C62A41
Copy CRC C1C62A41
Copy OK
No errors occured
End of status report



Just Feels Right 2005
Треклист:
Gimmealilclick 0:33
Get Em Goin' 5:44
Chillaxin 6:06
Just My Imagination 4:55
Gonnatakeuhigher 0:31
Straight Up 6:12
This Must Be For Real 5:15
Just Feels Right 5:33
Cantstopdafunk (Straight Up Reprise) 1:04
12:08 AM 5:50
Ballerina Girl 5:36
 
Отчёт EAC
EAC extraction logfile from 14. April 2007, 18:00 for CD
Euge Groove / Just Feels Right
Used drive : TSSTcorpCD/DVDW SH-S182M Adapter: 2 ID: 0
Read mode : Secure with NO C2, accurate stream, disable cache
Read offset correction : 6
Overread into Lead-In and Lead-Out : No
Used output format : C:\EAC\flac-1.1.2-win\bin\flac.exe (User Defined Encoder)
320 kBit/s
Additional command line options : -V -8 -T "artist=%a" -T "title=%t" -T "album=%g" -T "date=%y" -T "tracknumber=%n" -T "genre=%m" %s
Other options :
Fill up missing offset samples with silence : Yes
Delete leading and trailing silent blocks : No
Installed external ASPI interface
Track 1
Filename E:\Euge Groove - Just Feels Right (2005) [FLAC]\01 - Gimmealilclick.wav
Pre-gap length 0:00:02.00
Peak level 99.7 %
Track quality 100.0 %
Test CRC 54185E44
Copy CRC 54185E44
Copy OK
Track 2
Filename E:\Euge Groove - Just Feels Right (2005) [FLAC]\02 - Get Em Goin'.wav
Peak level 100.0 %
Track quality 100.0 %
Test CRC DCB30650
Copy CRC DCB30650
Copy OK
Track 3
Filename E:\Euge Groove - Just Feels Right (2005) [FLAC]\03 - Chillaxin.wav
Pre-gap length 0:00:01.73
Peak level 99.7 %
Track quality 100.0 %
Test CRC 41FC79A8
Copy CRC 41FC79A8
Copy OK
Track 4
Filename E:\Euge Groove - Just Feels Right (2005) [FLAC]\04 - Just My Imagination.wav
Peak level 99.7 %
Track quality 100.0 %
Test CRC 17BCD2FC
Copy CRC 17BCD2FC
Copy OK
Track 5
Filename E:\Euge Groove - Just Feels Right (2005) [FLAC]\05 - Gonnatakeuhigher.wav
Peak level 99.7 %
Track quality 100.0 %
Test CRC EB59C2DE
Copy CRC EB59C2DE
Copy OK
Track 6
Filename E:\Euge Groove - Just Feels Right (2005) [FLAC]\06 - Straight Up.wav
Peak level 100.0 %
Track quality 100.0 %
Test CRC 1FD48983
Copy CRC 1FD48983
Copy OK
Track 7
Filename E:\Euge Groove - Just Feels Right (2005) [FLAC]\07 - This Must Be For Real.wav
Pre-gap length 0:00:00.54
Peak level 99.7 %
Track quality 99.9 %
Test CRC 8EFD7412
Copy CRC 8EFD7412
Copy OK
Track 8
Filename E:\Euge Groove - Just Feels Right (2005) [FLAC]\08 - Just Feels Right.wav
Peak level 100.0 %
Track quality 100.0 %
Test CRC F1017F94
Copy CRC F1017F94
Copy OK
Track 9
Filename E:\Euge Groove - Just Feels Right (2005) [FLAC]\09 - Cantstopdafunk.wav
Pre-gap length 0:00:00.28
Peak level 99.7 %
Track quality 100.0 %
Test CRC 5E4839D6
Copy CRC 5E4839D6
Copy OK
Track 10
Filename E:\Euge Groove - Just Feels Right (2005) [FLAC]\10 - 12-08 Am.wav
Pre-gap length 0:00:00.53
Peak level 99.7 %
Track quality 100.0 %
Test CRC 5556EC12
Copy CRC 5556EC12
Copy OK
Track 11
Filename E:\Euge Groove - Just Feels Right (2005) [FLAC]\11 - Ballerina Girl.wav
Pre-gap length 0:00:00.30
Peak level 99.7 %
Track quality 100.0 %
Test CRC E909C75E
Copy CRC E909C75E
Copy OK
No errors occured
End of status report



Born 2 Groove 2007
Треклист:
• Summer Night's Dream
• Mr. Groove
• Café del Soul
• Slow Jam
• Born 2 Groove
• Religify
• Geez Spot
• I Love You More Than You'll Ever Know
• Movin' On
• Baby If You Only Knew (What I Could Do)
 
Отчёт EAC
EAC extraction logfile from 19. June 2007, 10:13 for CD
Euge Groove / Born 2 Groove
Used drive : TSSTcorpCD/DVDW SH-S182M Adapter: 2 ID: 0
Read mode : Secure with NO C2, accurate stream, disable cache
Read offset correction : 6
Overread into Lead-In and Lead-Out : No
Used output format : C:\EAC\flac-1.1.2-win\bin\flac.exe (User Defined Encoder)
320 kBit/s
Additional command line options : -V -8 -T "artist=%a" -T "title=%t" -T "album=%g" -T "date=%y" -T "tracknumber=%n" -T "genre=%m" %s
Other options :
Fill up missing offset samples with silence : Yes
Delete leading and trailing silent blocks : No
Installed external ASPI interface
Track 1
Filename E:\Euge Groove - Born 2 Groove (2007) [FLAC]\01 - A Summer's Nights Dream.wav
Pre-gap length 0:00:02.00
Peak level 100.0 %
Track quality 100.0 %
Test CRC B94C3C70
Copy CRC B94C3C70
Copy OK
Track 2
Filename E:\Euge Groove - Born 2 Groove (2007) [FLAC]\02 - Mr. Groove.wav
Pre-gap length 0:00:01.00
Peak level 100.0 %
Track quality 100.0 %
Test CRC 1F62E30E
Copy CRC 1F62E30E
Copy OK
Track 3
Filename E:\Euge Groove - Born 2 Groove (2007) [FLAC]\03 - Cafe Del Soul.wav
Pre-gap length 0:00:01.52
Peak level 100.0 %
Track quality 100.0 %
Test CRC 76674A26
Copy CRC 76674A26
Copy OK
Track 4
Filename E:\Euge Groove - Born 2 Groove (2007) [FLAC]\04 - Slow Jam.wav
Pre-gap length 0:00:01.50
Peak level 100.0 %
Track quality 99.9 %
Test CRC D5472DFF
Copy CRC D5472DFF
Copy OK
Track 5
Filename E:\Euge Groove - Born 2 Groove (2007) [FLAC]\05 - Born 2 Groove.wav
Pre-gap length 0:00:01.92
Peak level 100.0 %
Track quality 100.0 %
Test CRC 7DB9BDAC
Copy CRC 7DB9BDAC
Copy OK
Track 6
Filename E:\Euge Groove - Born 2 Groove (2007) [FLAC]\06 - Religify.wav
Pre-gap length 0:00:02.01
Peak level 100.0 %
Track quality 99.9 %
Test CRC FC619C05
Copy CRC FC619C05
Copy OK
Track 7
Filename E:\Euge Groove - Born 2 Groove (2007) [FLAC]\07 - Geez Spot.wav
Pre-gap length 0:00:01.97
Peak level 100.0 %
Track quality 100.0 %
Test CRC 605EF6C8
Copy CRC 605EF6C8
Copy OK
Track 8
Filename E:\Euge Groove - Born 2 Groove (2007) [FLAC]\08 - I Love You More Than You'll Ever Know.wav
Pre-gap length 0:00:01.84
Peak level 100.0 %
Track quality 100.0 %
Test CRC FDCD9C69
Copy CRC FDCD9C69
Copy OK
Track 9
Filename E:\Euge Groove - Born 2 Groove (2007) [FLAC]\09 - Movin' On.wav
Pre-gap length 0:00:01.78
Peak level 100.0 %
Track quality 99.9 %
Test CRC BE2BA66C
Copy CRC BE2BA66C
Copy OK
Track 10
Filename E:\Euge Groove - Born 2 Groove (2007) [FLAC]\10 - Baby If You Only Knew (What I Could Do).wav
Pre-gap length 0:00:01.52
Peak level 100.0 %
Track quality 99.9 %
Test CRC B234BC7C
Copy CRC B234BC7C
Copy OK
No errors occured
End of status report



P.S. Первый альбом отрипан с пиратки мною, второй с псевдолицензии Stas125, остальные с оригинальных дисков DrStandBy.
Благодарю DrStandBy и Stas125 за предоставленный материал и любезное согласие на объединение наших релизов в одну дискографию.
Приватный:
Нет (DHT включён)
Размер:
1.60 Гб (1,722,638,536 байт) » файлов: 118
Участники:
0 раздают, 0 качают (0 участников всего)
Внешние участники:
3 раздают, 1 качают (4 участников всего) [ Обновить ]
12:40
4
Нет комментариев. Ваш будет первым!