Поиск

(Smooth Jazz, Crossover Jazz, Jazz-Pop) Joe Sample - Ashes To Ashes - 1990, FLAC (image + .cue), lossless

(Smooth Jazz, Crossover Jazz, Jazz-Pop) Joe Sample - Ashes To Ashes - 1990, FLAC (image + .cue), lossless
Треклист:
Joe Sample - Ashes To Ashes
Жанр: Smooth Jazz, Crossover Jazz, Jazz-Pop
Год выпуска: 1990
Формат: FLAC (image + .cue)
Битрейт аудио: lossless
Продолжительность: 50:14
Трэклист:
01. Ashes To Ashes
02. The Road Less Traveled
03. Mother's Eyes
04. The Last Child
05. Born In Trouble
06. Strike Two
07. I'll Love You
08. Born To Be Bad
09. Phoenix
Доп. информация:
происхождение диска я позабыл.
помню, что несколько лет назад рипнул, записал себе на Yamaha-F1. всегда считал его безродным, но увидев результаты AccurateRip был удивлён.
сканов нет
отчёт TAU - CDDA - 100%
контрольные суммы тому подтверждение.
 
Отчёт EAC
Exact Audio Copy V0.99 prebeta 3 from 28. July 2007
EAC extraction logfile from 31. January 2008, 23:36
Joe Sample / Ashes To Ashes
Used drive : PLEXTOR CD-R PREMIUM Adapter: 1 ID: 0
Read mode : Secure
Utilize accurate stream : Yes
Defeat audio cache : Yes
Make use of C2 pointers : No
Read offset correction : 30
Overread into Lead-In and Lead-Out : Yes
Fill up missing offset samples with silence : Yes
Delete leading and trailing silent blocks : No
Null samples used in CRC calculations : No
Used interface : Installed external ASPI interface
Used output format : Internal WAV Routines
Sample format : 44.100 Hz; 16 Bit; Stereo
TOC of the extracted CD
Track | Start | Length | Start sector | End sector
---------------------------------------------------------
1 | 0:00.00 | 4:53.50 | 0 | 22024
2 | 4:53.50 | 5:28.49 | 22025 | 46673
3 | 10:22.24 | 4:48.66 | 46674 | 68339
4 | 15:11.15 | 6:00.48 | 68340 | 95387
5 | 21:11.63 | 5:35.42 | 95388 | 120554
6 | 26:47.30 | 5:50.24 | 120555 | 146828
7 | 32:37.54 | 5:35.71 | 146829 | 172024
8 | 38:13.50 | 5:35.22 | 172025 | 197171
9 | 43:48.72 | 6:24.73 | 197172 | 226044
Range status and errors
Selected range
Filename D:\My Documents\My Music\Images\my archive\CD\Joe Sample\Joe Sample - Ashes To Ashes\Joe Sample - Ashes To Ashes.wav
Peak level 97.2 %
Range quality 100.0 %
Copy CRC 977ED7AD
Copy OK
No errors occurred
AccurateRip summary
Track 1 accurately ripped (confidence 1) [559CCB79]
Track 2 accurately ripped (confidence 1) [E116DE5B]
Track 3 accurately ripped (confidence 1) [60910666]
Track 4 accurately ripped (confidence 1) [58E1D1C0]
Track 5 accurately ripped (confidence 1) [6038A2F6]
Track 6 accurately ripped (confidence 1) [A033A4B1]
Track 7 accurately ripped (confidence 1) [758AEE5B]
Track 8 accurately ripped (confidence 1) [D3DEB5F9]
Track 9 accurately ripped (confidence 1) [00FB1ACE]
All tracks accurately ripped
End of status report
Скачивание доступно после регистрации!!
Приватный:
Нет (DHT включён)
Размер:
288.48 Мб (302,495,511 байт) » файлов: 4
Участники:
0 раздают, 0 качают (0 участников всего)
Внешние участники:
5 раздают, 2 качают (7 участников всего) [ Обновить ]
12:05
16
Нет комментариев. Ваш будет первым!