Поиск

(Smooth Jazz, Contemporary Jazz) Euge Groove - House Of Groove- 2012, FLAC (tracks+.cue), lossless

(Smooth Jazz, Contemporary Jazz) Euge Groove - House Of Groove- 2012, FLAC (tracks+.cue), lossless
Треклист:
•Euge Groove - House Of Groove•
Жанр: Smooth Jazz, Contemporary Jazz
Год издания: 2012
Издатель (лейбл): Shanachie
Аудиокодек: FLAC (*.flac)
Тип рипа: tracks+.cue
Битрейт аудио: lossless
Продолжительность: 00:58:59
Источник (релизер):shummuhs
Наличие сканов в содержимом раздачи: нет
Треклист:
01. Knocki Knocki Who's There? [05:54]
02. House Of Groove [05:32]
03. Fellowship Hall [05:30]
04. God Bless You (Feat. Kate Miner Moebel) [06:14]
05. Lampin' It [05:12]
06. Old.Edu (Old School) [06:36]
07. Indian Summer [07:00]
08. Never Met A Woman (Like You) (Feat. Jeffrey Osbourne) [04:59]
09. Faithful Central [05:39]
10. It's Only Rain (Feat. Chioma) [06:19]
 
Лог создания рипа
X Lossless Decoder version 20130127 (142.3)
XLD extraction logfile from 2013-02-01 20:49:26 +0200
Euge Groove / House Of Groove
Used drive : MATSHITA DVD-R   UJ-857D (revision KBVB)
Media type : Pressed CD
Ripper mode             : XLD Secure Ripper
Disable audio cache     : OK for the drive with a cache less than 1375KiB
Make use of C2 pointers : NO
Read offset correction  : 102
Max retry count         : 20
Gap status              : Analyzed, Appended
TOC of the extracted CD
     Track |   Start  |  Length  | Start sector | End sector
    ---------------------------------------------------------
        1  | 00:00:00 | 05:54:45 |         0    |    26594
        2  | 05:54:45 | 05:32:39 |     26595    |    51533
        3  | 11:27:09 | 05:30:06 |     51534    |    76289
        4  | 16:57:15 | 06:14:47 |     76290    |   104386
        5  | 23:11:62 | 05:12:01 |    104387    |   127787
        6  | 28:23:63 | 06:36:74 |    127788    |   157561
        7  | 35:00:62 | 07:00:40 |    157562    |   189101
        8  | 42:01:27 | 04:59:04 |    189102    |   211530
        9  | 47:00:31 | 05:39:53 |    211531    |   237008
       10  | 52:40:09 | 06:19:00 |    237009    |   265433
AccurateRip Summary (DiscID: 00161540-00b12b81-7a0dd30a)
    Track 01 : OK (v1, confidence 1/1)
    Track 02 : OK (v1, confidence 1/1)
    Track 03 : OK (v1, confidence 1/1)
    Track 04 : OK (v1, confidence 1/1)
    Track 05 : OK (v1, confidence 1/1)
    Track 06 : OK (v1, confidence 1/1)
    Track 07 : OK (v1, confidence 1/1)
    Track 08 : OK (v1, confidence 1/1)
    Track 09 : OK (v1, confidence 1/1)
    Track 10 : OK (v1, confidence 1/1)
        ->All tracks accurately ripped.
All Tracks
    Album gain               : -7.95 dB
    Peak                     : 0.988617
    Statistics
        Read error                           : 0
        Jitter error (maybe fixed)           : 0
        Retry sector count                   : 0
        Damaged sector count                 : 0
Track 01
    Filename : /Users/vitaliylitvinov/Music/Euge Groove - 2012 - House of Groove/01 Euge Groove - Knocki Knocki Who's There?.flac
    Pre-gap length : 00:02:00
    Track gain               : -7.76 dB
    Peak                     : 0.988586
    CRC32 hash (test run)    : 273EB4E7
    CRC32 hash               : 273EB4E7
    CRC32 hash (skip zero)   : 42878222
    AccurateRip v1 signature : 07C6C0AB
    AccurateRip v2 signature : 4A90722B
        ->Accurately ripped (v1, confidence 1/1)
    Statistics
        Read error                           : 0
        Jitter error (maybe fixed)           : 0
        Retry sector count                   : 0
        Damaged sector count                 : 0
Track 02
    Filename : /Users/vitaliylitvinov/Music/Euge Groove - 2012 - House of Groove/02 Euge Groove - House Of Groove.flac
    Pre-gap length : 00:02:53
    Track gain               : -8.04 dB
    Peak                     : 0.988617
    CRC32 hash (test run)    : DCE652D7
    CRC32 hash               : DCE652D7
    CRC32 hash (skip zero)   : 62359FD4
    AccurateRip v1 signature : 2BEA1DB2
    AccurateRip v2 signature : 50E8B434
        ->Accurately ripped (v1, confidence 1/1)
    Statistics
        Read error                           : 0
        Jitter error (maybe fixed)           : 0
        Retry sector count                   : 0
        Damaged sector count                 : 0
Track 03
    Filename : /Users/vitaliylitvinov/Music/Euge Groove - 2012 - House of Groove/03 Euge Groove - Fellowship Hall.flac
    Pre-gap length : 00:01:00
    Track gain               : -8.27 dB
    Peak                     : 0.988586
    CRC32 hash (test run)    : EF508D99
    CRC32 hash               : EF508D99
    CRC32 hash (skip zero)   : A052FBCA
    AccurateRip v1 signature : B734D457
    AccurateRip v2 signature : A98E5B64
        ->Accurately ripped (v1, confidence 1/1)
    Statistics
        Read error                           : 0
        Jitter error (maybe fixed)           : 0
        Retry sector count                   : 0
        Damaged sector count                 : 0
Track 04
    Filename : /Users/vitaliylitvinov/Music/Euge Groove - 2012 - House of Groove/04 Euge Groove - God Bless You (Feat. Kate Miner Moebel).flac
    Pre-gap length : 00:01:34
    Track gain               : -6.70 dB
    Peak                     : 0.988586
    CRC32 hash (test run)    : 879D81A6
    CRC32 hash               : 879D81A6
    CRC32 hash (skip zero)   : 95EA019D
    AccurateRip v1 signature : 3AE7E09C
    AccurateRip v2 signature : 654B3950
        ->Accurately ripped (v1, confidence 1/1)
    Statistics
        Read error                           : 0
        Jitter error (maybe fixed)           : 0
        Retry sector count                   : 0
        Damaged sector count                 : 0
Track 05
    Filename : /Users/vitaliylitvinov/Music/Euge Groove - 2012 - House of Groove/05 Euge Groove - Lampin' It.flac
    Pre-gap length : 00:01:66
    Track gain               : -8.52 dB
    Peak                     : 0.988586
    CRC32 hash (test run)    : 1ABCF83B
    CRC32 hash               : 1ABCF83B
    CRC32 hash (skip zero)   : 5A9C2AB8
    AccurateRip v1 signature : 1C76DDB5
    AccurateRip v2 signature : E34BB006
        ->Accurately ripped (v1, confidence 1/1)
    Statistics
        Read error                           : 0
        Jitter error (maybe fixed)           : 0
        Retry sector count                   : 0
        Damaged sector count                 : 0
Track 06
    Filename : /Users/vitaliylitvinov/Music/Euge Groove - 2012 - House of Groove/06 Euge Groove - Old.Edu (Old School).flac
    Pre-gap length : 00:02:06
    Track gain               : -6.27 dB
    Peak                     : 0.988586
    CRC32 hash (test run)    : F7CD5A30
    CRC32 hash               : F7CD5A30
    CRC32 hash (skip zero)   : 42594A42
    AccurateRip v1 signature : D4ADE828
    AccurateRip v2 signature : AB09E4B6
        ->Accurately ripped (v1, confidence 1/1)
    Statistics
        Read error                           : 0
        Jitter error (maybe fixed)           : 0
        Retry sector count                   : 0
        Damaged sector count                 : 0
Track 07
    Filename : /Users/vitaliylitvinov/Music/Euge Groove - 2012 - House of Groove/07 Euge Groove - Indian Summer.flac
    Pre-gap length : 00:01:10
    Track gain               : -7.92 dB
    Peak                     : 0.988586
    CRC32 hash (test run)    : EADB011B
    CRC32 hash               : EADB011B
    CRC32 hash (skip zero)   : 499495A5
    AccurateRip v1 signature : EA6C0F8C
    AccurateRip v2 signature : 29B8EFA4
        ->Accurately ripped (v1, confidence 1/1)
    Statistics
        Read error                           : 0
        Jitter error (maybe fixed)           : 0
        Retry sector count                   : 0
        Damaged sector count                 : 0
Track 08
    Filename : /Users/vitaliylitvinov/Music/Euge Groove - 2012 - House of Groove/08 Euge Groove - Never Met A Woman (Like You) (Feat. Jeffrey Osbourne).flac
    Pre-gap length : 00:01:73
    Track gain               : -8.51 dB
    Peak                     : 0.933289
    CRC32 hash (test run)    : 38060C93
    CRC32 hash               : 38060C93
    CRC32 hash (skip zero)   : 2EF2599B
    AccurateRip v1 signature : B642A027
    AccurateRip v2 signature : 1E17B10E
        ->Accurately ripped (v1, confidence 1/1)
    Statistics
        Read error                           : 0
        Jitter error (maybe fixed)           : 0
        Retry sector count                   : 0
        Damaged sector count                 : 0
Track 09
    Filename : /Users/vitaliylitvinov/Music/Euge Groove - 2012 - House of Groove/09 Euge Groove - Faithful Central.flac
    Pre-gap length : 00:01:52
    Track gain               : -7.93 dB
    Peak                     : 0.988586
    CRC32 hash (test run)    : 966C9D62
    CRC32 hash               : 966C9D62
    CRC32 hash (skip zero)   : E12C5D9D
    AccurateRip v1 signature : F73B52AC
    AccurateRip v2 signature : 00C2E1DB
        ->Accurately ripped (v1, confidence 1/1)
    Statistics
        Read error                           : 0
        Jitter error (maybe fixed)           : 0
        Retry sector count                   : 0
        Damaged sector count                 : 0
Track 10
    Filename : /Users/vitaliylitvinov/Music/Euge Groove - 2012 - House of Groove/10 Euge Groove - It's Only Rain (Feat. Chioma).flac
    Pre-gap length : 00:02:29
    Track gain               : -8.13 dB
    Peak                     : 0.988586
    CRC32 hash (test run)    : 6763848B
    CRC32 hash               : 6763848B
    CRC32 hash (skip zero)   : A4F6C9FF
    AccurateRip v1 signature : C094C124
    AccurateRip v2 signature : 82A313D7
        ->Accurately ripped (v1, confidence 1/1)
    Statistics
        Read error                           : 0
        Jitter error (maybe fixed)           : 0
        Retry sector count                   : 0
        Damaged sector count                 : 0
No errors occurred
End of status report
 
 
Содержание индексной карты (.CUE)
TITLE "House Of Groove"
PERFORMER "Euge Groove"
REM GENRE "Smooth Jazz"
REM DATE "2012"
REM DISCID 7A0DD30A
REM REPLAYGAIN_ALBUM_GAIN -7.95 dB
REM REPLAYGAIN_ALBUM_PEAK 0.988617
FILE "01 Euge Groove - Knocki Knocki Who's There?.flac" WAVE
  TRACK 01 AUDIO
    TITLE "Knocki Knocki Who's There?"
    ISRC US7SF1252330
    REM REPLAYGAIN_TRACK_GAIN -7.76 dB
    REM REPLAYGAIN_TRACK_PEAK 0.988586
    INDEX 01 00:00:00
  TRACK 02 AUDIO
    TITLE "House Of Groove"
    ISRC US7SF1252331
    REM REPLAYGAIN_TRACK_GAIN -8.04 dB
    REM REPLAYGAIN_TRACK_PEAK 0.988617
    INDEX 00 05:51:67
FILE "02 Euge Groove - House Of Groove.flac" WAVE
    INDEX 01 00:00:00
  TRACK 03 AUDIO
    TITLE "Fellowship Hall"
    ISRC US7SF1252332
    REM REPLAYGAIN_TRACK_GAIN -8.27 dB
    REM REPLAYGAIN_TRACK_PEAK 0.988586
    INDEX 00 05:31:39
FILE "03 Euge Groove - Fellowship Hall.flac" WAVE
    INDEX 01 00:00:00
  TRACK 04 AUDIO
    TITLE "God Bless You (Feat. Kate Miner Moebel)"
    ISRC US7SF1252333
    REM REPLAYGAIN_TRACK_GAIN -6.70 dB
    REM REPLAYGAIN_TRACK_PEAK 0.988586
    INDEX 00 05:28:47
FILE "04 Euge Groove - God Bless You (Feat. Kate Miner Moebel).flac" WAVE
    INDEX 01 00:00:00
  TRACK 05 AUDIO
    TITLE "Lampin' It"
    ISRC US7SF1252334
    REM REPLAYGAIN_TRACK_GAIN -8.52 dB
    REM REPLAYGAIN_TRACK_PEAK 0.988586
    INDEX 00 06:12:56
FILE "05 Euge Groove - Lampin' It.flac" WAVE
    INDEX 01 00:00:00
  TRACK 06 AUDIO
    TITLE "Old.Edu (Old School)"
    ISRC US7SF1252335
    REM REPLAYGAIN_TRACK_GAIN -6.27 dB
    REM REPLAYGAIN_TRACK_PEAK 0.988586
    INDEX 00 05:09:70
FILE "06 Euge Groove - Old.Edu (Old School).flac" WAVE
    INDEX 01 00:00:00
  TRACK 07 AUDIO
    TITLE "Indian Summer"
    ISRC US7SF1252336
    REM REPLAYGAIN_TRACK_GAIN -7.92 dB
    REM REPLAYGAIN_TRACK_PEAK 0.988586
    INDEX 00 06:35:64
FILE "07 Euge Groove - Indian Summer.flac" WAVE
    INDEX 01 00:00:00
  TRACK 08 AUDIO
    TITLE "Never Met A Woman (Like You) (Feat. Jeffrey Osbourne)"
    ISRC US7SF1252337
    REM REPLAYGAIN_TRACK_GAIN -8.51 dB
    REM REPLAYGAIN_TRACK_PEAK 0.933289
    INDEX 00 06:58:42
FILE "08 Euge Groove - Never Met A Woman (Like You) (Feat. Jeffrey Osbourne).flac" WAVE
    INDEX 01 00:00:00
  TRACK 09 AUDIO
    TITLE "Faithful Central"
    ISRC US7SF1252338
    REM REPLAYGAIN_TRACK_GAIN -7.93 dB
    REM REPLAYGAIN_TRACK_PEAK 0.988586
    INDEX 00 04:57:27
FILE "09 Euge Groove - Faithful Central.flac" WAVE
    INDEX 01 00:00:00
  TRACK 10 AUDIO
    TITLE "It's Only Rain (Feat. Chioma)"
    ISRC US7SF1252339
    REM REPLAYGAIN_TRACK_GAIN -8.13 dB
    REM REPLAYGAIN_TRACK_PEAK 0.988586
    INDEX 00 05:37:24
FILE "10 Euge Groove - It's Only Rain (Feat. Chioma).flac" WAVE
    INDEX 01 00:00:00
Any questions - support@pro-jazz.com
To become a power user - read FAQ.
15:59
512
Нет комментариев. Ваш будет первым!