Поиск

(Smooth Jazz, Contemporary Jazz) Christy Baron - I Thought About You - 1997, APE (image + .cue), lossless

Треклист:
Christy Baron - I Thought About You
Label: Chesky Records
Страна: UK
Жанр: Smooth Jazz, Contemporary Jazz
Год выпуска: 1997
Формат: APE (image + .cue)
Битрейт аудио: lossless
Продолжительность: 55:15
Трэклист:
01. Got to get you into my life (3:16)
02. Round Midnight (5:06)
03. Knocks me off my feet (4:24)
04. Ain't no sunshine (2:23)
05. Night and Day (3:50)
06. Misty (4:51)
07. Columbus (5:42)
08. Body and soul (5:45)
09. Summer soft (5:09)
10. Somewhere over the rainbow (6:59)
11. I thought about you (3:43)
12. If it's magic (4:08)
Bass [Acoustic] - David Finck
Drums - Peyton Crossley
Engineer [Recording] - Bob Katz
Harmonica [Chromatic] - William Galison
Piano - Cliff Korman
Producer - David Chesky
Saxophone - George Young (2)
Vocals - Christy Baron
Notes: Recorded at St. Peter's Episcopal Church NYC, August 27-30, 1996
 
Доп. информация
Exact Audio Copy V0.99 prebeta 4 from 23. January 2008
Отчёт EAC об извлечении, выполненном 3. апреля 2008, 13:00
Christy Baron / Christy Baron - I Thought About You
Дисковод: MV3011W ABR623E Adapter: 3 ID: 0
Режим чтения : Достоверность
Использование точного потока : Да
Отключение кэша аудио : Да
Использование указателей C2 : Нет
Коррекция смещения при чтении : 30
Способность читать области Lead-in и Lead-out : Нет
Заполнение пропущенных сэмплов тишиной : Да
Удаление блоков с тишиной в начале и конце : Нет
При вычислениях CRC использовались нулевые сэмплы : Да
Интерфейс : Установленный внешний ASPI-интерфейс
Выходной формат : Внутренние WAV-операции
Формат сэмплов : 44.100 Гц; 16 бит; стерео
TOC извлечённого CD
Трек | Старт | Длительность | Начальный сектор | Конечный сектор
---------------------------------------------------------------------
1 | 0:00.30 | 3:15.39 | 30 | 14693
2 | 3:15.69 | 5:05.47 | 14694 | 37615
3 | 8:21.41 | 4:23.73 | 37616 | 57413
4 | 12:45.39 | 2:23.34 | 57414 | 68172
5 | 15:08.73 | 3:50.24 | 68173 | 85446
6 | 18:59.22 | 4:50.65 | 85447 | 107261
7 | 23:50.12 | 5:41.57 | 107262 | 132893
8 | 29:31.69 | 5:45.04 | 132894 | 158772
9 | 35:16.73 | 5:09.18 | 158773 | 181965
10 | 40:26.16 | 6:58.56 | 181966 | 213371
11 | 47:24.72 | 3:42.62 | 213372 | 230083
12 | 51:07.59 | 4:08.01 | 230084 | 248684
Характеристики диапазона извлечения и сообщения об ошибках
Выбранный диапазон
Имя файла E:\Christy Baron - Christy Baron - I Thought About You.wav
Пиковый уровень 99.9 %
Качество диапазона 100.0 %
CRC копии 3753142E
Копирование... OK
Ошибок не произошло
Конец отчёта
E:\Arcue>arcue.exe Christy.Baron.cue
Christy.Baron.cue:
Checking AccurateRip database
URL: http://www.accuraterip.com/accuraterip/a/9/1/dBAR-012-0017719a-00df38d5-9e0
cf30c.bin
Track Ripping Status [Disc ID: 0017719a-9e0cf30c]
1 Accurately Ripped (confidence 7) [2767a029]
2 Accurately Ripped (confidence 7) [3a1e4f42]
3 Accurately Ripped (confidence 7) [5c359cf3]
4 Accurately Ripped (confidence 7) [ed08ac66]
5 Accurately Ripped (confidence 7) [0fa3c92e]
6 Accurately Ripped (confidence 7) [38736a99]
7 Accurately Ripped (confidence 7) [4501fbb6]
8 Accurately Ripped (confidence 7) [82404a9c]
9 Accurately Ripped (confidence 7) [b29af655]
10 Accurately Ripped (confidence 6) [577a16e3]
11 Accurately Ripped (confidence 7) [a245b300]
12 Accurately Ripped (confidence 7) [f80b0458]
_______________________
All Tracks Accurately Ripped.
Christy Baron - Steppin - 2000 - http://rutracker.org/forum/viewtopic.php?p=8329806#8329806
Christy Baron - Take This Journey - 2002 - http://rutracker.org/forum/viewtopic.php?t=771972
Christy Baron - Retrospective - 2004 - http://rutracker.org/forum/viewtopic.php?t=766997
Приватный:
Нет (DHT включён)
Размер:
265.74 Мб (278,645,545 байт) » файлов: 6
Участники:
0 раздают, 0 качают (0 участников всего)
Внешние участники:
2 раздают, 1 качают (3 участников всего) [ Обновить ]
12:28
5
Нет комментариев. Ваш будет первым!