Поиск

(Smooth Jazz, Contemporary Jazz) Brian Bromberg - BASSically Speaking - 1990(APE, image+.cue) (+ Freddie Hubbard, Alex Acuña, Kei Akagi, Joe Farrell ...)

(Smooth Jazz, Contemporary Jazz) Brian Bromberg - BASSically Speaking - 1990(APE, image+.cue) (+ Freddie Hubbard, Alex Acuña, Kei Akagi, Joe Farrell ...)
Треклист:
Brian Bromberg - BASSically Speaking
Жанр: Smooth Jazz, Contemporary Jazz
Издание: Рип с пиратки
Продолжительность: 0:51:59
Трэклист:
1. You and I
2. A Summertime
3. New Day
4. My Funny Valentine
5. Oriental Ho-Down
6. Bassically Speaking
7. Mushy Tushy
8. Take a Walk in the Park With Me
9. Puerto Maсana
10. Sunrise
Персоналии:
Brian Bromberg - Bass, Keyboards, Guitar Synth
Steve Reid - Percussion
Kei Akagi - Piano, Keyboards
Alex Acuña - Percussion, Drums
Carl Cherry - Drums
Joe Farrell - Flute
Freddie Hubbard - Flugelhorn
Marc Hugenberger - Keyboards
Guy Moon - Keyboards
Joel Taylor - Drums
Ernie Watts - Sax (Tenor)
Doug Webb - Sax (Soprano)
Zachary - Voices
Arthur Statman - Keyboards
 
Отчёт EAC
Exact Audio Copy V0.99 prebeta 4 from 23. January 2008
Отчёт EAC об извлечении, выполненном 4. апреля 2009, 15:09
Brian Bromberg / BASSically Speaking
Дисковод: PIONEER DVD-RW DVR-108 Adapter: 4 ID: 1
Режим чтения : Достоверность
Использование точного потока : Да
Отключение кэша аудио : Да
Использование указателей C2 : Нет
Коррекция смещения при чтении : 48
Способность читать области Lead-in и Lead-out : Нет
Заполнение пропущенных сэмплов тишиной : Да
Удаление блоков с тишиной в начале и конце : Нет
При вычислениях CRC использовались нулевые сэмплы : Да
Интерфейс : Встроенный Win32-интерфейс для Win NT/2000
Выходной формат : Внутренние WAV-операции
Формат сэмплов : 44.100 Гц; 16 бит; стерео
TOC извлечённого CD
Трек | Старт | Длительность | Начальный сектор | Конечный сектор
---------------------------------------------------------------------
1 | 0:00.37 | 5:03.53 | 37 | 22814
2 | 5:04.15 | 4:41.27 | 22815 | 43916
3 | 9:45.42 | 5:13.15 | 43917 | 67406
4 | 14:58.57 | 4:47.08 | 67407 | 88939
5 | 19:45.65 | 6:23.40 | 88940 | 117704
6 | 26:09.30 | 2:40.40 | 117705 | 129744
7 | 28:49.70 | 6:03.67 | 129745 | 157036
8 | 34:53.62 | 5:38.45 | 157037 | 182431
9 | 40:32.32 | 5:01.10 | 182432 | 205016
10 | 45:33.42 | 6:25.13 | 205017 | 233904
Характеристики диапазона извлечения и сообщения об ошибках
Выбранный диапазон
Имя файла J:\New Torrents\Brian Bromberg - BASSically Speaking\Brian Bromberg - BASSically Speaking.wav
Пиковый уровень 100.0 %
Качество диапазона 99.9 %
CRC копии EF78BCBD
Копирование... OK
Ошибок не произошло
AccurateRip: сводка
Трек 1 точное извлечение (доверие 1) [7930698E]
Трек 2 точное извлечение (доверие 1) [728B6E0B]
Трек 3 точное извлечение (доверие 1) [F0DE1477]
Трек 4 точное извлечение (доверие 1) [13D341EC]
Трек 5 точное извлечение (доверие 1) [AB858FE7]
Трек 6 точное извлечение (доверие 1) [C3189787]
Трек 7 точное извлечение (доверие 1) [EA44913A]
Трек 8 точное извлечение (доверие 1) [EDD9B592]
Трек 9 точное извлечение (доверие 1) [9782587F]
Трек 10 точное извлечение (доверие 1) [1F701668]
Все треки извлечены точно
Конец отчёта
Выкладываю на замену http://rutracker.org/forum/viewtopic.php?t=1400617 . Рип с пиратки, но вроде accurip подтверждает подлинность (правда, достовероность всего лишь 1)
Сканов не выкладываю. Ибо пиратка опять же...
Хороший дисочек. Смуть, но класс музыкантов и количество сольных номеров вытягивают его из "болота" подобных релизов.
Состав взял отсюда
По всем вопросам пишите личное сообщение пользователю M0p94ok.
16:38
648
Нет комментариев. Ваш будет первым!