Поиск

(Smooth Jazz) Chuck Loeb - eBop - 2003, APE (image + .cue), lossless

Треклист:
Chuck Loeb - eBop
Жанр: Smooth Jazz
Год выпуска: 2003
Формат: APE (image + .cue)
Битрейт аудио: lossless
Трэклист:
1. eBop
2. Brainstorm
3. Back at the Bistro
4. Back Then
5. Bring It
6. Fool Proof
7. New Wheels
8. Stained Glass
9. Smash
10. Parallax
Зарелизено на rutracker.org
и
Доп. информация:
Audio CD (July 8, 2003)
Original Release Date: July 8, 2003
Number of Discs: 1
Label: Shanachie
 
Лог извлечения EAC
Отчёт EAC об извлечении, выполненном 27. августа 2007, 20:25 для диска:
Chuck Loeb / eBop
Дисковод: PLEXTOR DVDR PX-760A Adapter: 1 ID: 0
Режим чтения: Достоверный (C2: нет, Точный поток: да, Отключение кэша: да)
Коррекция смещения при чтении: 30
Способность читать области Lead-in и Lead-out : Да
Выходной формат: Внутренние WAV-операции
44.100 Гц; 16 бит; стерео
Другие параметры:
Заполнение пропущенных сэмплов тишиной : Да
Удаление блоков с тишиной в начале и конце : Нет
Встроенный Win32-интерфейс для Win NT/2000
Характеристики диапазона извлечения и сообщения об ошибках
Выбранный диапазон
Имя файла C:\APE\Chuck Loeb\Chuck Loeb - 2003 - eBop\Chuck Loeb - eBop.wav
Пиковый уровень 98.8 %
Качество диапазона 100.0 %
CRC 77899F1F
Копирование... OK
Ошибок не произошло
Конец отчёта
 
CD TOC
Track |   Start  |  Length  | Start sector | End sector
---------------------------------------------------------
1 | 0:00.00 | 4:57.43 | 0 | 22317
2 | 4:57.43 | 5:51.57 | 22318 | 48699
3 | 10:49.25 | 6:11.67 | 48700 | 76591
4 | 17:01.17 | 6:34.48 | 76592 | 106189
5 | 23:35.65 | 4:53.08 | 106190 | 128172
6 | 28:28.73 | 5:56.25 | 128173 | 154897
7 | 34:25.23 | 4:46.17 | 154898 | 176364
8 | 39:11.40 | 6:31.39 | 176365 | 205728
9 | 45:43.04 | 4:25.35 | 205729 | 225638
10 | 50:08.39 | 5:46.10 | 225639 | 251598
 
AR check
[CUETools log; Date: 11.02.2018 12:36:54; Version: 2.1.5]
[CTDB TOCID: uvsCvHGFx7HzEb_GSH3Ulx99xLQ-] found.
[ CTDBID ] Status
[48797aef] (19/20) Accurately ripped
[d313fd24] (01/20) No match
Track | CTDB Status
1 | (19/20) Accurately ripped
2 | (20/20) Accurately ripped
3 | (20/20) Accurately ripped
4 | (20/20) Accurately ripped
5 | (20/20) Accurately ripped
6 | (20/20) Accurately ripped
7 | (20/20) Accurately ripped
8 | (20/20) Accurately ripped
9 | (20/20) Accurately ripped
10 | (20/20) Accurately ripped
[AccurateRip ID: 00154deb-00aa685f-700d1a0a] found.
Track [ CRC | V2 ] Status
01 [fd08749b|fb0660ea] (06+15/25) Accurately ripped
02 [df3234ac|2e447018] (06+14/24) Accurately ripped
03 [7be97a78|562afcda] (06+15/25) Accurately ripped
04 [daa2001d|b7caa11b] (06+14/24) Accurately ripped
05 [58ccd7f4|df2517b9] (06+14/24) Accurately ripped
06 [fe9fb8c7|89ac7202] (06+13/23) Accurately ripped
07 [3901a1fe|5fcae1d3] (06+14/24) Accurately ripped
08 [100f9835|079163a5] (06+14/24) Accurately ripped
09 [af0d0457|916c5adf] (06+15/25) Accurately ripped
10 [d11deb80|258880d3] (06+15/25) Accurately ripped
Offsetted by -664:
01 [4c562c73] (02/25) Accurately ripped
02 [c5a15254] (02/24) Accurately ripped
03 [8e1538d0] (02/25) Accurately ripped
04 [06d5159d] (02/24) Accurately ripped
05 [dd3e068c] (02/24) Accurately ripped
06 [359a688f] (02/23) Accurately ripped
07 [379f968e] (02/24) Accurately ripped
08 [085b679d] (02/24) Accurately ripped
09 [80d3bbf7] (02/25) Accurately ripped
10 [6dd644d0] (02/25) Accurately ripped
Offsetted by -676:
01 [0b74e11f] (00/25) No match
02 [68a35468] (00/24) No match
03 [852884bc] (00/25) No match
04 [d7d2ec5d] (00/24) No match
05 [1a3cfc98] (00/24) No match
06 [7132fcb3] (00/23) No match (V2 was not tested)
07 [a6a27156] (00/24) No match
08 [03976091] (00/24) No match
09 [0188acc7] (00/25) No match
10 [a204c7f8] (00/25) No match
Track Peak [ CRC32 ] [W/O NULL]
-- 98,8 [8FCF3DB0] [77899F1F]
01 98,8 [9045FF4D] [DD42920A]
02 98,8 [B599E4BE] [0394B6A3]
03 98,8 [9A2AC47B] [EED07F27]
04 88,1 [2426D9EA] [AB2A9304]
05 98,8 [FB9E2997] [E28E8074]
06 98,8 [18B5D610] [2AD75351]
07 98,8 [6AC76FEE] [43C0C3CA]
08 98,8 [33FF91A5] [B58300C4]
09 98,8 [A2CEF4EA] [06CC6B54]
10 98,8 [4ACE507D] [B079BEFE]
Другие альбомы Chuck Loeb (в лосслесс) на трекере:
1991 - Life Colors
1994 - Simple Things
1996 - The Music Inside
1998 - The Moon, the Stars and the Setting Sun
1999 - In a Heartbeat
1999 - Listen
2002 - All There Is
2003 - eBop
2005 - When I'm With You
2007 - The Love Song Collection
2007 - Presence
Приватный:
Нет (DHT включён)
Размер:
342.13 Мб (358,752,160 байт) » файлов: 5
Участники:
2 раздают, 1 качают (3 участников всего)
Внешние участники:
3 раздают, 1 качают (4 участников всего) [ Обновить ]
Никого нет на раздаче - пишите личное сообщение M0p94ok
No seeders - write personal message to M0p94ok
10:53
41
Нет комментариев. Ваш будет первым!