Поиск

(Smooth Jazz) Chieli Minucci & Special EFX - Without You - 2010 (2 CD's), FLAC (tracks+.cue) lossless

Треклист:
Chieli Minucci & Special EFX
Without You
Жанр: Smooth Jazz / Fusion
Год издания диска: 2010
Издатель (лейбл): Chieli Music
Аудио кодек: FLAC (*.flac)
Тип рипа: tracks+.cue
Битрейт аудио: lossless
Продолжительность: 1:35:41
Источник (релизер): Rip by Sarchiapone
Наличие сканов в содержимом раздачи: да
Треклист:
Disc One
01. Quivering (3:31)
02. Healing Waters (1:03)
03. Lakeside (4:53)
04. You Make Me Blue (5:00)
05. Prelude (0:24)
06. Love's Lost In Translation (4:27)
07. Hushabye (3:42)
08. The Night Is Ours (6:00)
09. Indelible (1:33)
10. Wonderboy (5:35)
11. Ballerina Rocks (6:52)
12. Mountina Jameroon (5:38)
13. Man With A Drum (2:46)
14. Afterglow (1:35)
15. Bacchanalia (7:14)
16. Gathering Wind (3:26)
Disc Two
01. You Make Me (5:02)
02. Electraglide (5:26)
03. July (6:18)
04. Twilight (5:44)
05. Love's Lost In Translation (full) (6:14)
06. Undeniable (3:19)
 
Логи создания рипов
Exact Audio Copy V1.0 beta 1 from 15. November 2010
EAC extraction logfile from 1. April 2011, 23:26
Chieli Minucci & Special EFX / Without You Cd1
Used drive : PLEXTOR CD-R PREMIUM2 Adapter: 1 ID: 1
Read mode : Secure
Utilize accurate stream : Yes
Defeat audio cache : Yes
Make use of C2 pointers : No
Read offset correction : 30
Overread into Lead-In and Lead-Out : No
Fill up missing offset samples with silence : Yes
Delete leading and trailing silent blocks : No
Null samples used in CRC calculations : Yes
Used interface : Installed external ASPI interface
Gap handling : Appended to previous track
Used output format : User Defined Encoder
Selected bitrate : 32 kBit/s
Quality : High
Add ID3 tag : No
Command line compressor : C:\Programmi\eac-1.00pb1\Flac\flac.exe
Additional command line options : -8 -V -T "ARTIST=%a" -T "TITLE=%t" -T "ALBUM=%g" -T "DATE=%y" -T "TRACKNUMBER=%n" %s
TOC of the extracted CD
Track | Start | Length | Start sector | End sector
---------------------------------------------------------
1 | 0:00.00 | 3:30.39 | 0 | 15788
2 | 3:30.39 | 1:02.42 | 15789 | 20480
3 | 4:33.06 | 4:53.17 | 20481 | 42472
4 | 9:26.23 | 4:59.45 | 42473 | 64942
5 | 14:25.68 | 0:23.41 | 64943 | 66708
6 | 14:49.34 | 4:26.38 | 66709 | 86696
7 | 19:15.72 | 3:42.19 | 86697 | 103365
8 | 22:58.16 | 6:00.02 | 103366 | 130367
9 | 28:58.18 | 1:33.28 | 130368 | 137370
10 | 30:31.46 | 5:35.25 | 137371 | 162520
11 | 36:06.71 | 6:51.47 | 162521 | 193392
12 | 42:58.43 | 5:38.11 | 193393 | 218753
13 | 48:36.54 | 2:46.21 | 218754 | 231224
14 | 51:23.00 | 1:34.54 | 231225 | 238328
15 | 52:57.54 | 7:14.08 | 238329 | 270886
16 | 60:11.62 | 3:25.48 | 270887 | 286309
Track 1
Filename D:\My Rip\01 - Quivering.wav
Pre-gap length 0:00:02.00
Peak level 98.7 %
Extraction speed 3.7 X
Track quality 99.9 %
Test CRC DB428403
Copy CRC DB428403
Cannot be verified as accurate (confidence 2) [7207B0D1], AccurateRip returned [6AB8471E]
Copy OK
Track 2
Filename D:\My Rip\02 - Healing Waters.wav
Peak level 72.3 %
Extraction speed 3.8 X
Track quality 100.0 %
Test CRC ABE2794E
Copy CRC ABE2794E
Cannot be verified as accurate (confidence 2) [BB1EE98C], AccurateRip returned [EED94CA0]
Copy OK
Track 3
Filename D:\My Rip\03 - Lakeside.wav
Peak level 99.7 %
Extraction speed 4.6 X
Track quality 99.9 %
Test CRC 9A5E48C7
Copy CRC 9A5E48C7
Cannot be verified as accurate (confidence 2) [C99CCE90], AccurateRip returned [BD819A28]
Copy OK
Track 4
Filename D:\My Rip\04 - You Make Me Blue.wav
Peak level 87.0 %
Extraction speed 6.3 X
Track quality 100.0 %
Test CRC 78DFAB5B
Copy CRC 78DFAB5B
Cannot be verified as accurate (confidence 2) [AA2098E0], AccurateRip returned [7D6EC218]
Copy OK
Track 5
Filename D:\My Rip\05 - Prelude.wav
Peak level 97.6 %
Extraction speed 1.2 X
Track quality 99.5 %
Test CRC 65740C2F
Copy CRC 65740C2F
Cannot be verified as accurate (confidence 2) [D60B3554], AccurateRip returned [4C799AC2]
Copy OK
Track 6
Filename D:\My Rip\06 - Love's Lost In Translation.wav
Peak level 97.6 %
Extraction speed 6.7 X
Track quality 100.0 %
Test CRC AD6F08E0
Copy CRC AD6F08E0
Cannot be verified as accurate (confidence 2) [A262A498], AccurateRip returned [1E606D24]
Copy OK
Track 7
Filename D:\My Rip\07 - Hushabye.wav
Peak level 81.2 %
Extraction speed 7.0 X
Track quality 100.0 %
Test CRC 9F617BBD
Copy CRC 9F617BBD
Cannot be verified as accurate (confidence 2) [8B1E5F9C], AccurateRip returned [A3735633]
Copy OK
Track 8
Filename D:\My Rip\08 - The Night Is Ours.wav
Peak level 97.6 %
Extraction speed 7.9 X
Track quality 100.0 %
Test CRC A0EE7590
Copy CRC A0EE7590
Cannot be verified as accurate (confidence 2) [11AF18D8], AccurateRip returned [EAD25A2B]
Copy OK
Track 9
Filename D:\My Rip\09 - Indelible.wav
Peak level 77.5 %
Extraction speed 6.4 X
Track quality 100.0 %
Test CRC DB15528B
Copy CRC DB15528B
Cannot be verified as accurate (confidence 2) [3F6B0284], AccurateRip returned [3A67660A]
Copy OK
Track 10
Filename D:\My Rip\10 - Wonderboy.wav
Peak level 98.7 %
Extraction speed 8.3 X
Track quality 100.0 %
Test CRC 20533CEB
Copy CRC 20533CEB
Cannot be verified as accurate (confidence 2) [3B3FB098], AccurateRip returned [56DAB541]
Copy OK
Track 11
Filename D:\My Rip\11 - Ballerina Rocks.wav
Peak level 96.5 %
Extraction speed 9.0 X
Track quality 100.0 %
Test CRC 8EA37A19
Copy CRC 8EA37A19
Cannot be verified as accurate (confidence 2) [01A26128], AccurateRip returned [0CE8406E]
Copy OK
Track 12
Filename D:\My Rip\12 - Mountina Jameroon.wav
Peak level 96.5 %
Extraction speed 9.5 X
Track quality 100.0 %
Test CRC 9FDABA6D
Copy CRC 9FDABA6D
Cannot be verified as accurate (confidence 2) [1236E9B1], AccurateRip returned [57244D82]
Copy OK
Track 13
Filename D:\My Rip\13 - Man With A Drum.wav
Peak level 88.0 %
Extraction speed 8.9 X
Track quality 100.0 %
Test CRC DBB13E12
Copy CRC DBB13E12
Cannot be verified as accurate (confidence 2) [110B3B83], AccurateRip returned [5079E6F5]
Copy OK
Track 14
Filename D:\My Rip\14 - Afterglow.wav
Peak level 96.5 %
Extraction speed 7.9 X
Track quality 100.0 %
Test CRC E9F6F4EC
Copy CRC E9F6F4EC
Cannot be verified as accurate (confidence 2) [E16B6992], AccurateRip returned [31391CB5]
Copy OK
Track 15
Filename D:\My Rip\15 - Bacchanalia.wav
Peak level 97.6 %
Extraction speed 10.3 X
Track quality 100.0 %
Test CRC 1BACFDD6
Copy CRC 1BACFDD6
Cannot be verified as accurate (confidence 2) [2C1E5D58], AccurateRip returned [2F0A8827]
Copy OK
Track 16
Filename D:\My Rip\16 - Gathering Wind.wav
Peak level 96.5 %
Extraction speed 2.3 X
Track quality 99.7 %
Test CRC 43E100F0
Copy CRC 43E100F0
Cannot be verified as accurate (confidence 2) [E0AD275A], AccurateRip returned [3AA5F6DE]
Copy OK
No tracks could be verified as accurate
You may have a different pressing from the one(s) in the database
No errors occurred
End of status report
==== Log checksum 9ADFB2846F913111AD4D7E68BDF724D8FB2D6533099D70970B7F93613261D196 ====
Exact Audio Copy V1.0 beta 1 from 15. November 2010
EAC extraction logfile from 2. April 2011, 0:08
Chieli Minucci & Special EFX / Without You Cd2
Used drive : PLEXTOR CD-R PREMIUM2 Adapter: 1 ID: 1
Read mode : Secure
Utilize accurate stream : Yes
Defeat audio cache : Yes
Make use of C2 pointers : No
Read offset correction : 30
Overread into Lead-In and Lead-Out : No
Fill up missing offset samples with silence : Yes
Delete leading and trailing silent blocks : No
Null samples used in CRC calculations : Yes
Used interface : Installed external ASPI interface
Gap handling : Appended to previous track
Used output format : User Defined Encoder
Selected bitrate : 32 kBit/s
Quality : High
Add ID3 tag : No
Command line compressor : C:\Programmi\eac-1.00pb1\Flac\flac.exe
Additional command line options : -8 -V -T "ARTIST=%a" -T "TITLE=%t" -T "ALBUM=%g" -T "DATE=%y" -T "TRACKNUMBER=%n" %s
TOC of the extracted CD
Track | Start | Length | Start sector | End sector
---------------------------------------------------------
1 | 0:00.00 | 5:01.39 | 0 | 22613
2 | 5:01.39 | 5:26.25 | 22614 | 47088
3 | 10:27.64 | 6:18.31 | 47089 | 75469
4 | 16:46.20 | 5:43.40 | 75470 | 101234
5 | 22:29.60 | 6:14.16 | 101235 | 129300
6 | 28:44.01 | 3:19.28 | 129301 | 144253
Track 1
Filename D:\My Rip\01 - You Make Me.wav
Pre-gap length 0:00:02.00
Peak level 87.0 %
Extraction speed 4.2 X
Track quality 99.9 %
Test CRC 31296312
Copy CRC 31296312
Track not present in AccurateRip database
Copy OK
Track 2
Filename D:\My Rip\02 - Electraglide.wav
Pre-gap length 0:00:02.00
Peak level 96.5 %
Extraction speed 5.9 X
Track quality 100.0 %
Test CRC 48B4B74B
Copy CRC 48B4B74B
Track not present in AccurateRip database
Copy OK
Track 3
Filename D:\My Rip\03 - July.wav
Peak level 97.6 %
Extraction speed 6.6 X
Track quality 100.0 %
Test CRC 26EFB252
Copy CRC 26EFB252
Track not present in AccurateRip database
Copy OK
Track 4
Filename D:\My Rip\04 - Twilight.wav
Peak level 98.7 %
Extraction speed 7.2 X
Track quality 100.0 %
Test CRC A3970784
Copy CRC A3970784
Track not present in AccurateRip database
Copy OK
Track 5
Filename D:\My Rip\05 - Love's Lost In Translation (full).wav
Peak level 97.6 %
Extraction speed 6.6 X
Track quality 99.9 %
Test CRC A45FFDB0
Copy CRC A45FFDB0
Track not present in AccurateRip database
Copy OK
Track 6
Filename D:\My Rip\06 - Undeniable.wav
Peak level 97.6 %
Extraction speed 7.6 X
Track quality 100.0 %
Test CRC 5B996A9A
Copy CRC 5B996A9A
Track not present in AccurateRip database
Copy OK
None of the tracks are present in the AccurateRip database
No errors occurred
End of status report
==== Log checksum E98A3FF29F07A239A4539AE4EA7673EA6086DF28B0B6BFD48CF3678EFBE90F8B ====
 
Содержание индексных карт (.CUE)
REM GENRE Fusion
REM DATE 2010
REM DISCID E90EE910
REM COMMENT "ExactAudioCopy v1.0b1"
PERFORMER "Chieli Minucci & Special EFX"
TITLE "Without You Cd1"
FILE "01 - Quivering.wav" WAVE
TRACK 01 AUDIO
TITLE "Quivering"
PERFORMER "Chieli Minucci & Special EFX"
INDEX 01 00:00:00
FILE "02 - Healing Waters.wav" WAVE
TRACK 02 AUDIO
TITLE "Healing Waters"
PERFORMER "Chieli Minucci & Special EFX"
INDEX 01 00:00:00
FILE "03 - Lakeside.wav" WAVE
TRACK 03 AUDIO
TITLE "Lakeside"
PERFORMER "Chieli Minucci & Special EFX"
INDEX 01 00:00:00
FILE "04 - You Make Me Blue.wav" WAVE
TRACK 04 AUDIO
TITLE "You Make Me Blue"
PERFORMER "Chieli Minucci & Special EFX"
INDEX 01 00:00:00
FILE "05 - Prelude.wav" WAVE
TRACK 05 AUDIO
TITLE "Prelude"
PERFORMER "Chieli Minucci & Special EFX"
INDEX 01 00:00:00
FILE "06 - Love's Lost In Translation.wav" WAVE
TRACK 06 AUDIO
TITLE "Love's Lost In Translation"
PERFORMER "Chieli Minucci & Special EFX"
INDEX 01 00:00:00
FILE "07 - Hushabye.wav" WAVE
TRACK 07 AUDIO
TITLE "Hushabye"
PERFORMER "Chieli Minucci & Special EFX"
INDEX 01 00:00:00
FILE "08 - The Night Is Ours.wav" WAVE
TRACK 08 AUDIO
TITLE "The Night Is Ours"
PERFORMER "Chieli Minucci & Special EFX"
INDEX 01 00:00:00
FILE "09 - Indelible.wav" WAVE
TRACK 09 AUDIO
TITLE "Indelible"
PERFORMER "Chieli Minucci & Special EFX"
INDEX 01 00:00:00
FILE "10 - Wonderboy.wav" WAVE
TRACK 10 AUDIO
TITLE "Wonderboy"
PERFORMER "Chieli Minucci & Special EFX"
INDEX 01 00:00:00
FILE "11 - Ballerina Rocks.wav" WAVE
TRACK 11 AUDIO
TITLE "Ballerina Rocks"
PERFORMER "Chieli Minucci & Special EFX"
INDEX 01 00:00:00
FILE "12 - Mountina Jameroon.wav" WAVE
TRACK 12 AUDIO
TITLE "Mountina Jameroon"
PERFORMER "Chieli Minucci & Special EFX"
INDEX 01 00:00:00
FILE "13 - Man With A Drum.wav" WAVE
TRACK 13 AUDIO
TITLE "Man With A Drum"
PERFORMER "Chieli Minucci & Special EFX"
INDEX 01 00:00:00
FILE "14 - Afterglow.wav" WAVE
TRACK 14 AUDIO
TITLE "Afterglow"
PERFORMER "Chieli Minucci & Special EFX"
INDEX 01 00:00:00
FILE "15 - Bacchanalia.wav" WAVE
TRACK 15 AUDIO
TITLE "Bacchanalia"
PERFORMER "Chieli Minucci & Special EFX"
INDEX 01 00:00:00
FILE "16 - Gathering Wind.wav" WAVE
TRACK 16 AUDIO
TITLE "Gathering Wind"
PERFORMER "Chieli Minucci & Special EFX"
INDEX 01 00:00:00
===================================================================================
REM GENRE Fusion
REM DATE 2010
REM DISCID 3C078306
REM COMMENT "ExactAudioCopy v1.0b1"
PERFORMER "Chieli Minucci & Special EFX"
TITLE "Without You Cd2"
FILE "01 - You Make Me.wav" WAVE
TRACK 01 AUDIO
TITLE "You Make Me"
PERFORMER "Chieli Minucci & Special EFX"
INDEX 01 00:00:00
TRACK 02 AUDIO
TITLE "Electraglide"
PERFORMER "Chieli Minucci & Special EFX"
INDEX 00 04:59:39
FILE "02 - Electraglide.wav" WAVE
INDEX 01 00:00:00
FILE "03 - July.wav" WAVE
TRACK 03 AUDIO
TITLE "July"
PERFORMER "Chieli Minucci & Special EFX"
INDEX 01 00:00:00
FILE "04 - Twilight.wav" WAVE
TRACK 04 AUDIO
TITLE "Twilight"
PERFORMER "Chieli Minucci & Special EFX"
INDEX 01 00:00:00
FILE "05 - Love's Lost In Translation (full).wav" WAVE
TRACK 05 AUDIO
TITLE "Love's Lost In Translation (full)"
PERFORMER "Chieli Minucci & Special EFX"
INDEX 01 00:00:00
FILE "06 - Undeniable.wav" WAVE
TRACK 06 AUDIO
TITLE "Undeniable"
PERFORMER "Chieli Minucci & Special EFX"
INDEX 01 00:00:00
 
Логи проверки качества
AUDIOCHECKER v2.0 beta (build 457) - by Dester - opdester@freemail.hu
~~~~~~~~~~~~~~~~~~~~~~~~~~~~~~~~~~
-=== DO NOT EDIT THIS FILE! ===-
Path: ...\Disc 1 Of 2
01 -=- 01 - Quivering.flac -=- CDDA (100%)
02 -=- 02 - Healing Waters.flac -=- CDDA (99%)
03 -=- 03 - Lakeside.flac -=- CDDA (100%)
04 -=- 04 - You Make Me Blue.flac -=- CDDA (99%)
05 -=- 05 - Prelude.flac -=- CDDA (100%)
06 -=- 06 - Love's Lost In Translation.flac -=- CDDA (100%)
07 -=- 07 - Hushabye.flac -=- CDDA (100%)
08 -=- 08 - The Night Is Ours.flac -=- CDDA (100%)
09 -=- 09 - Indelible.flac -=- CDDA (100%)
10 -=- 10 - Wonderboy.flac -=- CDDA (100%)
11 -=- 11 - Ballerina Rocks.flac -=- CDDA (100%)
12 -=- 12 - Mountina Jameroon.flac -=- CDDA (100%)
13 -=- 13 - Man With A Drum.flac -=- MPEG (90%)
14 -=- 14 - Afterglow.flac -=- CDDA (100%)
15 -=- 15 - Bacchanalia.flac -=- CDDA (100%)
16 -=- 16 - Gathering Wind.flac -=- CDDA (100%)
Summary 94,25% CDDA
252275556
==================================================================
AUDIOCHECKER v2.0 beta (build 457) - by Dester - opdester@freemail.hu
~~~~~~~~~~~~~~~~~~~~~~~~~~~~~~~~~~
-=== DO NOT EDIT THIS FILE! ===-
Path: ...\Disc 2 Of 2
1 -=- 01 - You Make Me.flac -=- CDDA (100%)
2 -=- 02 - Electraglide.flac -=- CDDA (100%)
3 -=- 03 - July.flac -=- CDDA (100%)
4 -=- 04 - Twilight.flac -=- CDDA (100%)
5 -=- 05 - Love's Lost In Translation (full).flac -=- CDDA (99%)
6 -=- 06 - Undeniable.flac -=- CDDA (100%)
Summary 99,83% CDDA
124743540
 
Состав
musicians
Chieli Minucci - electric and acoustic guitars,keyboards,background vocals
George Jinda - percussion
Jerry Brooks - bass
Lionel Cordew - drums
Jay Rowe - acoustic grand piano,keyboards
Philip Hamilton - percussion,vocals
Lao Tizer - acoustic grand piano
Jeff Lorber - Fender Rhodes
Karen Briggs - violin
Will Brock - lead and background vocals
Dave Anderson - fretless bass
Alan Grubner - violin
Gianluca Minucci - bass
Produced by Chieli Minucci
По всем вопросам пишите личное сообщение пользователю M0p94ok.
23:27
285
Нет комментариев. Ваш будет первым!