Поиск

(Smooth Jazz) [CD] Kaori Kobayashi - STORY: 10th Anniversary - 2015, FLAC (tracks+.cue), lossless

(Smooth Jazz) [CD] Kaori Kobayashi - STORY: 10th Anniversary - 2015, FLAC (tracks+.cue), lossless
Треклист:
Kaori Kobayashi - STORY: 10th Anniversary
Жанр: Smooth Jazz
Носитель: CD
Страна-производитель диска (релиза): JP
Год издания: 2015
Издатель (лейбл): 小林香織 @ Victor Entertainment
Страна исполнителя (группы): JP
http://kaorikobayashi.com/archives/albums/story
О музыке: Очередной альбом виртуозной японской джазовой саксофонистки и флейтистки 小林香織 (Каори Кобаяси).
Kaori Kobayashi - STORY: 10th Anniversary [2015 г., Smooth Jazz, DVD5]
Аудиокодек: FLAC (*.flac)
Тип рипа: tracks+.cue
Битрейт аудио: lossless
Продолжительность: 01:09:19
Источник (релизер): IsraBox
Наличие сканов в содержимом раздачи: нет
Треклист:
01. Stream Line [5:16]
02. Never Say Never [6:21]
03. Back Street [4:40]
04. PRECIOUS [5:00]
05. It's the Star Connection [5:54]
06. Grace [5:09]
07. Warmth [5:14]
08. Another Way [5:38]
09. もらい泣き [4:32]
10. Great India [6:38]
11. The Fighter [4:44]
12. Starry Heavens [5:51]
13. Rock with You [4:23]
 
Лог создания рипа
X Lossless Decoder version 20141129 (148.1)
XLD extraction logfile from 2015-06-24 10:08:20 +0900
Kaori Kobayashi / Story - 10th Anniversary
Used drive : MATSHITA DVD-R UJ-868 (revision KB19)
Media type : Pressed CD
Ripper mode : XLD Secure Ripper
Disable audio cache : OK for the drive with a cache less than 1375KiB
Make use of C2 pointers : NO
Read offset correction : 102
Max retry count : 20
Gap status : Analyzed, Appended
TOC of the extracted CD
Track | Start | Length | Start sector | End sector
---------------------------------------------------------
1 | 00:00:00 | 05:15:41 | 0 | 23665
2 | 05:15:41 | 06:21:33 | 23666 | 52273
3 | 11:36:74 | 04:39:58 | 52274 | 73256
4 | 16:16:57 | 05:00:23 | 73257 | 95779
5 | 21:17:05 | 05:53:40 | 95780 | 122294
6 | 27:10:45 | 05:08:42 | 122295 | 145436
7 | 32:19:12 | 05:13:63 | 145437 | 168974
8 | 37:33:00 | 05:38:15 | 168975 | 194339
9 | 43:11:15 | 04:32:27 | 194340 | 214766
10 | 47:43:42 | 06:37:66 | 214767 | 244607
11 | 54:21:33 | 04:43:52 | 244608 | 265884
12 | 59:05:10 | 05:51:32 | 265885 | 292241
13 | 64:56:42 | 04:22:60 | 292242 | 311951
AccurateRip Summary
Disc not found in AccurateRip DB.
All Tracks
Statistics
Read error : 0
Jitter error (maybe fixed) : 0
Retry sector count : 0
Damaged sector count : 0
Track 01
Filename : /Users/Saeng/Convert Song/01 Kaori Kobayashi - Stream Line.flac
Pre-gap length : 00:02:00
CRC32 hash (test run) : D42E2D75
CRC32 hash : D42E2D75
CRC32 hash (skip zero) : 4F552D93
AccurateRip v1 signature : B1D51999
AccurateRip v2 signature : 887C52B4
->Track not present in AccurateRip database.
Statistics
Read error : 0
Jitter error (maybe fixed) : 0
Retry sector count : 0
Damaged sector count : 0
Track 02
Filename : /Users/Saeng/Convert Song/02 Kaori Kobayashi - Never Say Never.flac
Pre-gap length : 00:02:33
CRC32 hash (test run) : 0D397688
CRC32 hash : 0D397688
CRC32 hash (skip zero) : 6B089A6D
AccurateRip v1 signature : 6DA772E7
AccurateRip v2 signature : BC092A2E
->Track not present in AccurateRip database.
Statistics
Read error : 0
Jitter error (maybe fixed) : 0
Retry sector count : 0
Damaged sector count : 0
Track 03
Filename : /Users/Saeng/Convert Song/03 Kaori Kobayashi - Back Street.flac
Pre-gap length : 00:02:33
CRC32 hash (test run) : CEF0839C
CRC32 hash : CEF0839C
CRC32 hash (skip zero) : 36FA575B
AccurateRip v1 signature : 27698BF9
AccurateRip v2 signature : C3CF0C57
->Track not present in AccurateRip database.
Statistics
Read error : 0
Jitter error (maybe fixed) : 0
Retry sector count : 0
Damaged sector count : 0
Track 04
Filename : /Users/Saeng/Convert Song/04 Kaori Kobayashi - Precious.flac
Pre-gap length : 00:03:31
CRC32 hash (test run) : 84E6AB65
CRC32 hash : 84E6AB65
CRC32 hash (skip zero) : 1B402253
AccurateRip v1 signature : 276B59CC
AccurateRip v2 signature : 81979D12
->Track not present in AccurateRip database.
Statistics
Read error : 0
Jitter error (maybe fixed) : 0
Retry sector count : 0
Damaged sector count : 0
Track 05
Filename : /Users/Saeng/Convert Song/05 Kaori Kobayashi - It's the Star Connection.flac
Pre-gap length : 00:03:33
CRC32 hash (test run) : D7612934
CRC32 hash : D7612934
CRC32 hash (skip zero) : 7354376A
AccurateRip v1 signature : 236D66D1
AccurateRip v2 signature : 9834BFC5
->Track not present in AccurateRip database.
Statistics
Read error : 0
Jitter error (maybe fixed) : 0
Retry sector count : 0
Damaged sector count : 0
Track 06
Filename : /Users/Saeng/Convert Song/06 Kaori Kobayashi - Grace.flac
Pre-gap length : 00:03:33
CRC32 hash (test run) : B93601DC
CRC32 hash : B93601DC
CRC32 hash (skip zero) : CEFF0345
AccurateRip v1 signature : A948B0EF
AccurateRip v2 signature : 1CA657FD
->Track not present in AccurateRip database.
Statistics
Read error : 0
Jitter error (maybe fixed) : 0
Retry sector count : 0
Damaged sector count : 0
Track 07
Filename : /Users/Saeng/Convert Song/07 Kaori Kobayashi - Warmth.flac
Pre-gap length : 00:03:31
CRC32 hash (test run) : 3414BDFC
CRC32 hash : 3414BDFC
CRC32 hash (skip zero) : 51B0C9EB
AccurateRip v1 signature : ADC30304
AccurateRip v2 signature : 10DED95B
->Track not present in AccurateRip database.
Statistics
Read error : 0
Jitter error (maybe fixed) : 0
Retry sector count : 0
Damaged sector count : 0
Track 08
Filename : /Users/Saeng/Convert Song/08 Kaori Kobayashi - Another Way.flac
Pre-gap length : 00:03:32
CRC32 hash (test run) : C5CF4367
CRC32 hash : C5CF4367
CRC32 hash (skip zero) : 757DB627
AccurateRip v1 signature : AAC911BA
AccurateRip v2 signature : B7BD5724
->Track not present in AccurateRip database.
Statistics
Read error : 0
Jitter error (maybe fixed) : 0
Retry sector count : 0
Damaged sector count : 0
Track 09
Filename : /Users/Saeng/Convert Song/09 Kaori Kobayashi - Morainaki.flac
Pre-gap length : 00:02:69
CRC32 hash (test run) : 74B7E688
CRC32 hash : 74B7E688
CRC32 hash (skip zero) : 06E35030
AccurateRip v1 signature : E49E1E85
AccurateRip v2 signature : 412F26CE
->Track not present in AccurateRip database.
Statistics
Read error : 0
Jitter error (maybe fixed) : 0
Retry sector count : 0
Damaged sector count : 0
Track 10
Filename : /Users/Saeng/Convert Song/10 Kaori Kobayashi - Great India.flac
Pre-gap length : 00:02:33
CRC32 hash (test run) : 333801BA
CRC32 hash : 333801BA
CRC32 hash (skip zero) : F47FD239
AccurateRip v1 signature : E341AA36
AccurateRip v2 signature : 97F835ED
->Track not present in AccurateRip database.
Statistics
Read error : 0
Jitter error (maybe fixed) : 0
Retry sector count : 0
Damaged sector count : 0
Track 11
Filename : /Users/Saeng/Convert Song/11 Kaori Kobayashi - The Fighter.flac
Pre-gap length : 00:02:33
CRC32 hash (test run) : 34839872
CRC32 hash : 34839872
CRC32 hash (skip zero) : 6949FBE1
AccurateRip v1 signature : 208338A9
AccurateRip v2 signature : B7B1BF53
->Track not present in AccurateRip database.
Statistics
Read error : 0
Jitter error (maybe fixed) : 0
Retry sector count : 0
Damaged sector count : 0
Track 12
Filename : /Users/Saeng/Convert Song/12 Kaori Kobayashi - Starry Heavens.flac
Pre-gap length : 00:03:32
CRC32 hash (test run) : BAC9777C
CRC32 hash : BAC9777C
CRC32 hash (skip zero) : 2DBBEECC
AccurateRip v1 signature : A28F8130
AccurateRip v2 signature : 396E57D1
->Track not present in AccurateRip database.
Statistics
Read error : 0
Jitter error (maybe fixed) : 0
Retry sector count : 0
Damaged sector count : 0
Track 13
Filename : /Users/Saeng/Convert Song/13 Kaori Kobayashi - Rock with You.flac
Pre-gap length : 00:04:33
CRC32 hash (test run) : 7F50F33A
CRC32 hash : 7F50F33A
CRC32 hash (skip zero) : 19D469DD
AccurateRip v1 signature : 92C377F0
AccurateRip v2 signature : B15BFDD2
->Track not present in AccurateRip database.
Statistics
Read error : 0
Jitter error (maybe fixed) : 0
Retry sector count : 0
Damaged sector count : 0
No errors occurred
End of status report
 
Содержание индексной карты (.CUE)
REM GENRE Jazz
REM DATE 2015
REM DISCID DD103F0D
REM COMMENT "X Lossless Decoder version 20141129"
PERFORMER "Kaori Kobayashi"
TITLE "Story - 10th Anniversary"
FILE "01 - Stream Line.flac" WAVE
TRACK 01 AUDIO
PERFORMER "Kaori Kobayashi"
TITLE "Stream Line"
INDEX 01 00:00:00
FILE "02 - Never Say Never.flac" WAVE
TRACK 02 AUDIO
PERFORMER "Kaori Kobayashi"
TITLE "Never Say Never"
INDEX 01 00:00:00
FILE "03 - Back Street.flac" WAVE
TRACK 03 AUDIO
PERFORMER "Kaori Kobayashi"
TITLE "Back Street"
INDEX 01 00:00:00
FILE "04 - Precious.flac" WAVE
TRACK 04 AUDIO
PERFORMER "Kaori Kobayashi"
TITLE "Precious"
INDEX 01 00:00:00
FILE "05 - It's the Star Connection.flac" WAVE
TRACK 05 AUDIO
PERFORMER "Kaori Kobayashi"
TITLE "It's the Star Connection"
INDEX 01 00:00:00
FILE "06 - Grace.flac" WAVE
TRACK 06 AUDIO
PERFORMER "Kaori Kobayashi"
TITLE "Grace"
INDEX 01 00:00:00
FILE "07 - Warmth.flac" WAVE
TRACK 07 AUDIO
PERFORMER "Kaori Kobayashi"
TITLE "Warmth"
INDEX 01 00:00:00
FILE "08 - Another Way.flac" WAVE
TRACK 08 AUDIO
PERFORMER "Kaori Kobayashi"
TITLE "Another Way"
INDEX 01 00:00:00
FILE "09 - Morainaki.flac" WAVE
TRACK 09 AUDIO
PERFORMER "Kaori Kobayashi"
TITLE "Morainaki"
INDEX 01 00:00:00
FILE "10 - Great India.flac" WAVE
TRACK 10 AUDIO
PERFORMER "Kaori Kobayashi"
TITLE "Great India"
INDEX 01 00:00:00
FILE "11 - The Fighter.flac" WAVE
TRACK 11 AUDIO
PERFORMER "Kaori Kobayashi"
TITLE "The Fighter"
INDEX 01 00:00:00
FILE "12 - Starry Heavens.flac" WAVE
TRACK 12 AUDIO
PERFORMER "Kaori Kobayashi"
TITLE "Starry Heavens"
INDEX 01 00:00:00
FILE "13 - Rock with You.flac" WAVE
TRACK 13 AUDIO
PERFORMER "Kaori Kobayashi"
TITLE "Rock with You"
INDEX 01 00:00:00
 
Лог проверки качества
-----------------------
DON'T MODIFY THIS FILE
-----------------------
PERFORMER: auCDtect Task Manager, ver. 1.5.1RC6 build 1.5.1.7
Copyright (c) 2008-2010 y-soft. All rights reserved
http://y-soft.org
ANALYZER: auCDtect: CD records authenticity detector, version 0.8.2
Copyright (c) 2004 Oleg Berngardt. All rights reserved.
Copyright (c) 2004 Alexander Djourik. All rights reserved.
FILE: 01 - Stream Line.flac
Size: 38236389 Hash: 2ED351C0BC6ECFB99D10611FD45B4858 Accuracy: -m8
Conclusion: CDDA 99%
Signature: CE42EC6BCA25E132E1241ACB7B255B90CA4CDD2C
FILE: 02 - Never Say Never.flac
Size: 44172940 Hash: ADDF7657775BF5FBA70A097A943C8475 Accuracy: -m8
Conclusion: CDDA 100%
Signature: F22B656198FB12DFA9547E22DA780994F4EDA62F
FILE: 03 - Back Street.flac
Size: 32038997 Hash: AC2CCB1C1C021B4185981498E4184C8D Accuracy: -m8
Conclusion: CDDA 100%
Signature: 619C00B8E77823D03834185555330C9B209C9341
FILE: 04 - Precious.flac
Size: 35989549 Hash: C9FBF9F9E3316C3F69A44D51ED5F2281 Accuracy: -m8
Conclusion: CDDA 100%
Signature: 926C3EF616A94E09AE631D4E570EC354E581F950
FILE: 05 - It's the Star Connection.flac
Size: 44138535 Hash: 983523CA3273F92375BE2B077D3B51A5 Accuracy: -m8
Conclusion: MPEG 79%
Signature: 32FA5F13C8C008B20997817BD5974CBDC2593959
FILE: 06 - Grace.flac
Size: 34813714 Hash: 7835CDBA140A7774FA2BD8397D8E6267 Accuracy: -m8
Conclusion: CDDA 100%
Signature: 1BC27D38711E63B8140B7EA964CA47EBB86117C0
FILE: 07 - Warmth.flac
Size: 38720599 Hash: 6C760A268EA76CF4AC40C070973ACE97 Accuracy: -m8
Conclusion: CDDA 99%
Signature: D3D5EE212A3123F32805DAE80C901D5E44FDF071
FILE: 08 - Another Way.flac
Size: 43950020 Hash: 0FBBD43CC579F26DFACEA2765B4E8FB5 Accuracy: -m8
Conclusion: CDDA 100%
Signature: C8363097091648BFFDB63DCB2017FFC091665EC3
FILE: 09 - Morainaki.flac
Size: 31789771 Hash: DE96A8FABE5EB41E3D91039CC161A029 Accuracy: -m8
Conclusion: CDDA 100%
Signature: CEEAB4C5D44E764C9A6B99164BED2C6467E4DF9B
FILE: 10 - Great India.flac
Size: 50557111 Hash: 40A436FC66ADA081E52389C6AC090B23 Accuracy: -m8
Conclusion: CDDA 100%
Signature: 6F6ABA84D6F97F715543D24B4B2F208C45FA7E46
FILE: 11 - The Fighter.flac
Size: 34686935 Hash: 0D86E391C90902B4CCFD0DAD1AB66535 Accuracy: -m8
Conclusion: CDDA 100%
Signature: 7179DDF168D8EBB5469610EABA02558D4A01AF76
FILE: 12 - Starry Heavens.flac
Size: 39129783 Hash: E33E3EC5E6214AE2FB2D8BE2B0D48EDE Accuracy: -m8
Conclusion: CDDA 100%
Signature: D10E47C96CBF8B7D157402F90BEE48162B5F7069
FILE: 13 - Rock with You.flac
Size: 29095339 Hash: 0B3FA8D7789DCE0228427658B1983E85 Accuracy: -m8
Conclusion: CDDA 100%
Signature: 1947C879900431B9DF387CBFD3E4A4F254E8AAC3
По всем вопросам пишите личное сообщение пользователю M0p94ok.
08:53
594
Нет комментариев. Ваш будет первым!