Поиск

(Sax) Archie Shepp & Horace Parlan - Goin' Home - 1977, APE (image + .cue), lossless

Треклист:
Archie Shepp & Horace Parlan - Goin' Home
Страна: Denmark
Жанр: Saxofon
Год выпуска: 1977
Формат: APE (image + .cue)
Битрейт аудио: lossless
Трэклист:
1 GOIN' HOME 6:08
2 NOBODY KNOWS THE TROUBLES I'VE SEEN 4:40
3 GO DOWN MOSES 4:18
4 STEAL AWAY TO JESUS 6:14
5 DEEP RIVER 4:49
6 MY LORD WHAT A MORNING 4:38
7 AMAZING GRACE 4:20
8 SOMETIMES I FEEL LIKE A MOTHERLESS CHILD 5:19
9 SWING LOW, SWEET CHARIOT 2:42
10 COME SUNDAY 7:43
 
Audiochecker
Started at: вторник, 26. 02. 2008. - 21:17.26
1 file found
1 -===- C:\Program Files\eMule\Incoming\Archie Sheep & Horace Parlan - Goin' Home + Covers . APE\CDImage.ape
Extracted successfully
Conclusion: this track is CDDA with probability 100%
Tempfile successfully deleted.
Finished at: вторник, 26. 02. 2008. - 21:45.54 (operation time: 0:28.28)
 
CUETools log
[CUETools log; Date: 16.12.2014 10:00:48; Version: 2.0.9]
Pregap length 00:00:33.
[AccurateRip ID: 00135ccf-00998ccc-8a0bff0a] found.
Track [ CRC ] Status
01 [5ce67edb] (00/14) No match
02 [5a1bdf4b] (00/14) No match
03 [15e6beb6] (00/14) No match
04 [fd1934f9] (00/14) No match
05 [203a1361] (00/14) No match
06 [e5f4fecf] (00/14) No match
07 [de48edf5] (00/14) No match
08 [4c790f56] (00/14) No match
09 [768d4980] (00/13) No match
10 [b96a10eb] (00/14) No match
Offsetted by -582:
01 [d78dffba] (08/14) Accurately ripped
02 [a4aa4263] (08/14) Accurately ripped
03 [0ba7cdda] (08/14) Accurately ripped
04 [ef59a04e] (08/14) Accurately ripped
05 [f22f2ee9] (08/14) Accurately ripped
06 [47ba1abd] (08/14) Accurately ripped
07 [caae66bb] (08/14) Accurately ripped
08 [5f193815] (08/14) Accurately ripped
09 [9ea238b5] (08/13) Accurately ripped
10 [2d72b2b5] (08/14) Accurately ripped
Track Peak [ CRC32 ] [W/O NULL]
-- 85,3 [330A425A] [6C17E7D3]
01 84,2 [876AD32D] [F71AAD4A]
02 65,5 [45CF494C] [743BA11A]
03 70,7 [B166D770] [95EA5BD7]
04 68,0 [F6C839FE] [68207730]
05 72,6 [B97AAADC] [D95DECC9]
06 67,4 [6A54EF71] [D541F9F9]
07 61,2 [243CBDAE] [312B1297]
08 74,1 [BF180051] [B52D9405]
09 85,3 [DE3509CB] [138E2BDC]
10 64,3 [0272387A] [D2E53930]
Приватный:
Нет (DHT включён)
Размер:
197.12 Мб (206,695,522 байт) » файлов: 7
Участники:
0 раздают, 0 качают (0 участников всего)
Внешние участники:
2 раздают, 1 качают (3 участников всего) [ Обновить ]
Есть вопросы - пишите личное сообщение пользователю M0p94ok.
23:41
36
Нет комментариев. Ваш будет первым!