Поиск

(Samba Jazz/Brazilian Jazz) Dorival Caymmi - The Voice And Guitar Of Dorival Caymmi - 1960, FLAC (image+.cue), lossless

Треклист:
Dorival Caymmi - The Voice And Guitar Of Dorival Caymmi
Жанр: Samba Jazz/Brazilian Jazz
Год выпуска диска: 1960
Производитель диска: Capitol Records (EMI) - T 104 14 - Brazil
Источник: My CD
Аудио кодек: FLAC
Тип рипа: image+.cue
Битрейт аудио: lossless
Продолжительность: 31:04
Трэклист:
01 - Eu Nao Tenho Onde Morar (2:25)
02 - Rosa Morena (2:21)
03 - Acontece Que Eu Sou Baiano (2:20)
04 - Acalanto (special guest: Nana Caymmi) (3:23)
05 - Vestido De Bolero (2:12)
06 - O Dengo Que A Nega Tem (2:46)
07 - Dora (3:34)
08 - O Que E Que A Baiana Tem (2:33)
09 - A Visinha Do Lado (2:58)
10 - Adeus (3:51)
11 - Sao Salvador (2:16)
 
Scans
 
Info
This is Dorival Caymmi - Eu Nao Tenho Onde Morar (1960), for Odeon and made available here with an US Capitol reissue, featuring several well-known Caymmi compositions, such as: Rosa Morena, Marina, O que e que a Bahiana Tem, Acalanto among many others. We probably know these tunes through other artists’ interpretation and now it is time to hear how they perform with Dorival Caymmi, who says the only artist that makes definitive versions of his music is Joao Gilberto. Nana Caymmi is special guest on track 04 - Acalanto and Maestro Lindolfo Gaya is in charge of orchestra arrangements. Don't miss Dorival Caymmi's video performing at at Bahia de Todos os Sambas documentary.
 
EAC Лог
Exact Audio Copy V0.99 prebeta 5 from 4. May 2009
EAC extraction logfile from 17. January 2010, 17:30
Dorival Caymmi / The Voice And Guitar Of Dorival Caymmi
Used drive : HL-DT-STDVDRAM GH20NS15 Adapter: 0 ID: 0
Read mode : Secure
Utilize accurate stream : Yes
Defeat audio cache : Yes
Make use of C2 pointers : No
Read offset correction : 667
Overread into Lead-In and Lead-Out : No
Fill up missing offset samples with silence : Yes
Delete leading and trailing silent blocks : No
Null samples used in CRC calculations : Yes
Used interface : Installed external ASPI interface
Used output format : User Defined Encoder
Selected bitrate : 1024 kBit/s
Quality : High
Add ID3 tag : No
Command line compressor : C:\Program Files\Exact Audio Copy\Flac\flac.exe
Additional command line options : -8 -A tukey(0.25) -A gauss(0.1875) -b 4096 -V -T "artist=%a" -T "title=%t" -T "album=%g" -T "date=%y" -T "tracknumber=%n" -T "genre=%m" %s --sector-align
TOC of the extracted CD
Track | Start | Length | Start sector | End sector
---------------------------------------------------------
1 | 0:00.00 | 2:27.01 | 0 | 11025
2 | 2:27.01 | 2:23.14 | 11026 | 21764
3 | 4:50.15 | 2:22.67 | 21765 | 32481
4 | 7:13.07 | 3:25.42 | 32482 | 47898
5 | 10:38.49 | 2:14.51 | 47899 | 57999
6 | 12:53.25 | 2:48.19 | 58000 | 70618
7 | 15:41.44 | 3:36.45 | 70619 | 86863
8 | 19:18.14 | 2:35.39 | 86864 | 98527
9 | 21:53.53 | 3:00.36 | 98528 | 112063
10 | 24:54.14 | 3:53.74 | 112064 | 129612
11 | 28:48.13 | 2:16.07 | 129613 | 139819
Range status and errors
Selected range
Filename D:\Torrents.ru\Dorival Caymmi\Dorival Caymmi - The Voice And Guitar Of Dorival Caymmi\Dorival Caymmi - The Voice And Guitar Of Dorival Caymmi.wav
Peak level 100.0 %
Range quality 99.9 %
Test CRC F9CB40D5
Copy CRC F9CB40D5
Copy OK
No errors occurred
End of status report
 
Audiochecker
AUDIOCHECKER v2.0 beta (build 457) - by Dester - opdester@freemail.hu
~~~~~~~~~~~~~~~~~~~~~~~~~~~~~~~~~~
-=== DO NOT EDIT THIS FILE! ===-
Path: ...\Dorival Caymmi - The Voice And Guitar Of Dorival Caymmi
1 -=- Dorival Caymmi - The Voice And Guitar Of Dorival Caymmi.flac -=- CDDA (99%)
255239300
 
Tau Analyzer
14:26
357
Нет комментариев. Ваш будет первым!