Поиск

(Salsa, Ragga, Jazz-Pop) Sergent Garcia & Manu Chao - Viva el Sargento! - 2003, APE (tracks+.cue) lossless

Треклист:
Sergent Garcia & Manu Chao / Viva el Sargento!
Жанр: Salsa, Ragga, Jazz-Pop
Страна-производитель диска: EU
Год издания диска: 2003
Издатель (лейбл): EMI Music France
Номер по каталогу: 7243 580805 2 0
Страна:
Аудио кодек: APE (*.ape)
Тип рипа: tracks+.cue
Битрейт аудио: lossless
Продолжительность: 01:11:43
Источник (релизер): собственный релиз
Наличие сканов в содержимом раздачи: да
Треклист:
1. Canto Mi General
2. Oye Mi Bomba
3. Mamaye
4. Mojemonos
5. Medecine Man
6. Hoy Me Voy
7. Nuve Vidas
8. Camino De La Vida
9. Salsamania
10. Amor Pa' Mi
11. Sangre Negra
12. El Son Del Mojito
13. Quitate la arena
14. Los desaparecidos (feat. Manu Chao)
15. Asi toco la mano
16. Seremos (feat. Manu Chao)
17. Je Sais
 
Лог создания рипа
Exact Audio Copy V0.99 prebeta 5 from 4. May 2009
EAC extraction logfile from 19. February 2011, 11:34
Sergent Garcia & Manu Chao / Viva el Sargento!
Used drive : Optiarc DVD RW AD-7200S Adapter: 4 ID: 0
Read mode : Secure
Utilize accurate stream : Yes
Defeat audio cache : Yes
Make use of C2 pointers : No
Read offset correction : 48
Overread into Lead-In and Lead-Out : No
Fill up missing offset samples with silence : Yes
Delete leading and trailing silent blocks : No
Null samples used in CRC calculations : Yes
Used interface : Installed external ASPI interface
Gap handling : Appended to previous track
Used output format : Internal WAV Routines
Sample format : 44.100 Hz; 16 Bit; Stereo
TOC of the extracted CD
Track | Start | Length | Start sector | End sector
---------------------------------------------------------
1 | 0:00.00 | 1:42.62 | 0 | 7711
2 | 1:42.62 | 4:09.69 | 7712 | 26455
3 | 5:52.56 | 4:19.43 | 26456 | 45923
4 | 10:12.24 | 3:22.06 | 45924 | 61079
5 | 13:34.30 | 4:37.50 | 61080 | 81904
6 | 18:12.05 | 3:52.14 | 81905 | 99318
7 | 22:04.19 | 3:00.53 | 99319 | 112871
8 | 25:04.72 | 3:56.38 | 112872 | 130609
9 | 29:01.35 | 4:25.61 | 130610 | 150545
10 | 33:27.21 | 4:45.41 | 150546 | 171961
11 | 38:12.62 | 5:30.11 | 171962 | 196722
12 | 43:42.73 | 3:26.51 | 196723 | 212223
13 | 47:09.49 | 7:10.54 | 212224 | 244527
14 | 54:20.28 | 7:38.61 | 244528 | 278938
15 | 61:59.14 | 2:09.59 | 278939 | 288672
16 | 64:08.73 | 7:34.64 | 288673 | 322786
17 | 71:43.62 | 3:56.21 | 322787 | 340507
Track 1
Filename C:\Users\Admin\Desktop\Viva el Sargento!\01. Sergent Garcia & Manu Chao – Canto Mi Genera.wav
Pre-gap length 0:00:02.00
Peak level 96.6 %
Track quality 100.0 %
Test CRC 3FCC6D1E
Copy CRC 3FCC6D1E
Accurately ripped (confidence 1) [3CCF6AC7]
Copy OK
Track 2
Filename C:\Users\Admin\Desktop\Viva el Sargento!\02. Sergent Garcia & Manu Chao – Oye Mi Bomba (feat. Manu Chao.wav
Peak level 97.7 %
Track quality 100.0 %
Test CRC 4B61D00D
Copy CRC 4B61D00D
Accurately ripped (confidence 1) [675707AC]
Copy OK
Track 3
Filename C:\Users\Admin\Desktop\Viva el Sargento!\03. Sergent Garcia & Manu Chao – Mamaye.wav
Peak level 96.7 %
Track quality 100.0 %
Test CRC A42259AB
Copy CRC A42259AB
Accurately ripped (confidence 1) [6EC292C8]
Copy OK
Track 4
Filename C:\Users\Admin\Desktop\Viva el Sargento!\04. Sergent Garcia & Manu Chao – Mojemonos.wav
Peak level 96.7 %
Track quality 100.0 %
Test CRC AE7DE0C9
Copy CRC AE7DE0C9
Accurately ripped (confidence 1) [8121584F]
Copy OK
Track 5
Filename C:\Users\Admin\Desktop\Viva el Sargento!\05. Sergent Garcia & Manu Chao – Medecine Man.wav
Peak level 96.7 %
Track quality 100.0 %
Test CRC CB72402E
Copy CRC CB72402E
Accurately ripped (confidence 1) [232F70F2]
Copy OK
Track 6
Filename C:\Users\Admin\Desktop\Viva el Sargento!\06. Sergent Garcia & Manu Chao – Hoy Me Voy.wav
Peak level 96.7 %
Track quality 100.0 %
Test CRC 9E2F2E42
Copy CRC 9E2F2E42
Accurately ripped (confidence 1) [6B18880A]
Copy OK
Track 7
Filename C:\Users\Admin\Desktop\Viva el Sargento!\07. Sergent Garcia & Manu Chao – Nueve Vidas (feat. Manu Chao).wav
Peak level 96.7 %
Track quality 100.0 %
Test CRC 0896B366
Copy CRC 0896B366
Accurately ripped (confidence 1) [F24B82D6]
Copy OK
Track 8
Filename C:\Users\Admin\Desktop\Viva el Sargento!\08. Sergent Garcia & Manu Chao – Camino De La Vida (feat. Manu Chao.wav
Peak level 97.7 %
Track quality 100.0 %
Test CRC F3F30618
Copy CRC F3F30618
Accurately ripped (confidence 1) [3B015C34]
Copy OK
Track 9
Filename C:\Users\Admin\Desktop\Viva el Sargento!\09. Sergent Garcia & Manu Chao – Salsamania.wav
Peak level 96.7 %
Track quality 100.0 %
Test CRC 3433E41C
Copy CRC 3433E41C
Accurately ripped (confidence 1) [A90E0056]
Copy OK
Track 10
Filename C:\Users\Admin\Desktop\Viva el Sargento!\10. Sergent Garcia & Manu Chao – Amor Pa'mi (feat. Manu Chao).wav
Peak level 96.7 %
Track quality 100.0 %
Test CRC 4D120E2A
Copy CRC 4D120E2A
Accurately ripped (confidence 1) [EC8D907B]
Copy OK
Track 11
Filename C:\Users\Admin\Desktop\Viva el Sargento!\11. Sergent Garcia & Manu Chao – Sangre Negra.wav
Peak level 96.7 %
Track quality 100.0 %
Test CRC 9659D158
Copy CRC 9659D158
Accurately ripped (confidence 1) [B83B234F]
Copy OK
Track 12
Filename C:\Users\Admin\Desktop\Viva el Sargento!\12. Sergent Garcia & Manu Chao – El Son Del Mojitu (feat. Manu Chao).wav
Peak level 97.7 %
Track quality 100.0 %
Test CRC EF8BE048
Copy CRC EF8BE048
Accurately ripped (confidence 1) [770AEEB4]
Copy OK
Track 13
Filename C:\Users\Admin\Desktop\Viva el Sargento!\13. Sergent Garcia & Manu Chao – Quitate la arena.wav
Peak level 96.6 %
Track quality 100.0 %
Test CRC 39E64882
Copy CRC 39E64882
Accurately ripped (confidence 1) [08C5263A]
Copy OK
Track 14
Filename C:\Users\Admin\Desktop\Viva el Sargento!\14. Sergent Garcia & Manu Chao – Los desaparecidos (feat. Manu Chao).wav
Peak level 96.6 %
Track quality 100.0 %
Test CRC D343A20D
Copy CRC D343A20D
Accurately ripped (confidence 1) [016D1516]
Copy OK
Track 15
Filename C:\Users\Admin\Desktop\Viva el Sargento!\15. Sergent Garcia & Manu Chao – Asi toco la mano.wav
Peak level 96.7 %
Track quality 100.0 %
Test CRC E087938A
Copy CRC E087938A
Accurately ripped (confidence 1) [86B6ABF8]
Copy OK
Track 16
Filename C:\Users\Admin\Desktop\Viva el Sargento!\16. Sergent Garcia & Manu Chao – Seremos (feat. Manu Chao).wav
Peak level 96.6 %
Track quality 100.0 %
Test CRC D2E1776F
Copy CRC D2E1776F
Accurately ripped (confidence 1) [3C7B836B]
Copy OK
Track 17
Filename C:\Users\Admin\Desktop\Viva el Sargento!\17. Sergent Garcia & Manu Chao – Je Saia.wav
Peak level 96.6 %
Track quality 100.0 %
Test CRC B82801D8
Copy CRC B82801D8
Accurately ripped (confidence 1) [C7FDC049]
Copy OK
All tracks accurately ripped
No errors occurred
End of status report
 
Содержание индексной карты (.CUE)
REM GENRE Reggae
REM DATE 2003
REM DISCID D011BC11
REM COMMENT "ExactAudioCopy v0.99pb5"
PERFORMER "Sergent Garcia & Manu Chao"
TITLE "Viva el Sargento!"
FILE "01. Sergent Garcia & Manu Chao – Canto Mi Genera.wav" WAVE
TRACK 01 AUDIO
TITLE "Canto Mi Genera"
PERFORMER "Sergent Garcia & Manu Chao"
INDEX 01 00:00:00
FILE "02. Sergent Garcia & Manu Chao – Oye Mi Bomba (feat. Manu Chao.wav" WAVE
TRACK 02 AUDIO
TITLE "Oye Mi Bomba (feat. Manu Chao"
PERFORMER "Sergent Garcia & Manu Chao"
INDEX 01 00:00:00
FILE "03. Sergent Garcia & Manu Chao – Mamaye.wav" WAVE
TRACK 03 AUDIO
TITLE "Mamaye"
PERFORMER "Sergent Garcia & Manu Chao"
INDEX 01 00:00:00
FILE "04. Sergent Garcia & Manu Chao – Mojemonos.wav" WAVE
TRACK 04 AUDIO
TITLE "Mojemonos"
PERFORMER "Sergent Garcia & Manu Chao"
INDEX 01 00:00:00
FILE "05. Sergent Garcia & Manu Chao – Medecine Man.wav" WAVE
TRACK 05 AUDIO
TITLE "Medecine Man"
PERFORMER "Sergent Garcia & Manu Chao"
INDEX 01 00:00:00
FILE "06. Sergent Garcia & Manu Chao – Hoy Me Voy.wav" WAVE
TRACK 06 AUDIO
TITLE "Hoy Me Voy"
PERFORMER "Sergent Garcia & Manu Chao"
INDEX 01 00:00:00
FILE "07. Sergent Garcia & Manu Chao – Nueve Vidas (feat. Manu Chao).wav" WAVE
TRACK 07 AUDIO
TITLE "Nueve Vidas (feat. Manu Chao)"
PERFORMER "Sergent Garcia & Manu Chao"
INDEX 01 00:00:00
FILE "08. Sergent Garcia & Manu Chao – Camino De La Vida (feat. Manu Chao.wav" WAVE
TRACK 08 AUDIO
TITLE "Camino De La Vida (feat. Manu Chao"
PERFORMER "Sergent Garcia & Manu Chao"
INDEX 01 00:00:00
FILE "09. Sergent Garcia & Manu Chao – Salsamania.wav" WAVE
TRACK 09 AUDIO
TITLE "Salsamania"
PERFORMER "Sergent Garcia & Manu Chao"
INDEX 01 00:00:00
FILE "10. Sergent Garcia & Manu Chao – Amor Pa'mi (feat. Manu Chao).wav" WAVE
TRACK 10 AUDIO
TITLE "Amor Pa'mi (feat. Manu Chao)"
PERFORMER "Sergent Garcia & Manu Chao"
INDEX 01 00:00:00
FILE "11. Sergent Garcia & Manu Chao – Sangre Negra.wav" WAVE
TRACK 11 AUDIO
TITLE "Sangre Negra"
PERFORMER "Sergent Garcia & Manu Chao"
INDEX 01 00:00:00
FILE "12. Sergent Garcia & Manu Chao – El Son Del Mojitu (feat. Manu Chao).wav" WAVE
TRACK 12 AUDIO
TITLE "El Son Del Mojitu (feat. Manu Chao)"
PERFORMER "Sergent Garcia & Manu Chao"
INDEX 01 00:00:00
FILE "13. Sergent Garcia & Manu Chao – Quitate la arena.wav" WAVE
TRACK 13 AUDIO
TITLE "Quitate la arena"
PERFORMER "Sergent Garcia & Manu Chao"
INDEX 01 00:00:00
FILE "14. Sergent Garcia & Manu Chao – Los desaparecidos (feat. Manu Chao).wav" WAVE
TRACK 14 AUDIO
TITLE "Los desaparecidos (feat. Manu Chao)"
PERFORMER "Sergent Garcia & Manu Chao"
INDEX 01 00:00:00
FILE "15. Sergent Garcia & Manu Chao – Asi toco la mano.wav" WAVE
TRACK 15 AUDIO
TITLE "Asi toco la mano"
PERFORMER "Sergent Garcia & Manu Chao"
INDEX 01 00:00:00
FILE "16. Sergent Garcia & Manu Chao – Seremos (feat. Manu Chao).wav" WAVE
TRACK 16 AUDIO
TITLE "Seremos (feat. Manu Chao)"
PERFORMER "Sergent Garcia & Manu Chao"
INDEX 01 00:00:00
FILE "17. Sergent Garcia & Manu Chao – Je Sais.wav" WAVE
TRACK 17 AUDIO
TITLE "Je Sais"
PERFORMER "Sergent Garcia & Manu Chao"
INDEX 01 00:00:00
20:34
255
Нет комментариев. Ваш будет первым!