Поиск

(Salsa, Latin Jazz) ¡Cubanismo! - Discography - 1996-2007, FLAC (tracks+.cue), lossless

(Salsa, Latin Jazz) ¡Cubanismo! - Discography - 1996-2007, FLAC (tracks+.cue), lossless
Треклист:
Жанр: Salsa, Latin Jazz | Год выпуска: 1996-2007 | Аудио кодек: FLAC
Тип рипа: tracks+.cue | Битрейт аудио: lossless | Продолжительность: 5:51:13 | Сканы: частично | Источник рипов: what.cd
 
2007 - Greetings from Havana

Релиз: Original Release / AIM Trading Group / AIM 1091 CD / CD
Тип рипа: tracks+.cue
Сканы: нет
Продолжительность: 1:02:28
Треклист
01. Calor En Santiago (5:22)
02. Ei Solar (8:03)
03. Petit Mambo (6:22)
04. Paloma Sin Nido (4:19)
05. Congo Real (4:06)
06. Descarga Caliente (6:09)
07. Celebrando (7:07)
08. Presteme Su Mujer (5:22)
09. Idilio (5:09)
10. Mi Proposocion (6:15)
11. Estiro Bastidores (4:13)
 
Лог создания рипа
X Lossless Decoder version 20100218 (116.4)
XLD extraction logfile from 2010-02-19 14:32:40 -0500
Cubanismo / Greetings From Havana
Used drive : MATSHITA DVD-R UJ-857D (revision KBVB)
Use cdparanoia mode : YES (CDParanoia III 10.2 engine)
Disable audio cache : OK for the drive with cache less than 2750KB
Make use of C2 pointers : NO
Read offset correction : 102
Max retry count : 100
TOC of the extracted CD
Track | Start | Length | Start sector | End sector
---------------------------------------------------------
1 | 00:00:00 | 05:22:29 | 0 | 24178
2 | 05:22:29 | 08:02:60 | 24179 | 60388
3 | 13:25:14 | 06:21:56 | 60389 | 89019
4 | 19:46:70 | 04:18:40 | 89020 | 108409
5 | 24:05:35 | 04:06:21 | 108410 | 126880
6 | 28:11:56 | 06:09:35 | 126881 | 154590
7 | 34:21:16 | 07:07:17 | 154591 | 186632
8 | 41:28:33 | 05:22:27 | 186633 | 210809
9 | 46:50:60 | 05:08:50 | 210810 | 233959
10 | 51:59:35 | 06:15:22 | 233960 | 262106
11 | 58:14:57 | 04:13:11 | 262107 | 281092
All Tracks
Album gain : -7.02 dB
Peak : 0.994263
Track 01
Filename : /Temp/Cubanismo - Greetings From Havana (2007) [FLAC]/01 - Calor En Santiago.flac
Pre-gap length : 00:02:00
Track gain : -6.22 dB
Peak : 0.994263
CRC32 hash (test run) : 74D9437C
CRC32 hash : 74D9437C
CRC32 hash (skip zero) : C17ED56F
AccurateRip signature : 54D01603
->Accurately ripped! (confidence 2)
Statistics
Read error : 0
Skipped (treated as error) : 0
Edge jitter error (maybe fixed) : 0
Atom jitter error (maybe fixed) : 1
Drift error (maybe fixed) : 0
Dropped bytes error (maybe fixed) : 0
Duplicated bytes error (maybe fixed) : 0
Inconsistency in error sectors : 0
Track 02
Filename : /Temp/Cubanismo - Greetings From Havana (2007) [FLAC]/02 - Ei Solar.flac
Pre-gap length : 00:02:03
Track gain : -6.29 dB
Peak : 0.994263
CRC32 hash (test run) : 68BC80C6
CRC32 hash : 68BC80C6
CRC32 hash (skip zero) : 26FA0F2A
AccurateRip signature : 79DA4AC1
->Accurately ripped! (confidence 2)
Statistics
Read error : 0
Skipped (treated as error) : 0
Edge jitter error (maybe fixed) : 0
Atom jitter error (maybe fixed) : 0
Drift error (maybe fixed) : 0
Dropped bytes error (maybe fixed) : 0
Duplicated bytes error (maybe fixed) : 0
Inconsistency in error sectors : 0
Track 03
Filename : /Temp/Cubanismo - Greetings From Havana (2007) [FLAC]/03 - Petit Mambo.flac
Pre-gap length : 00:01:02
Track gain : -6.86 dB
Peak : 0.994263
CRC32 hash (test run) : 0E7F414B
CRC32 hash : 0E7F414B
CRC32 hash (skip zero) : DF9BDECD
AccurateRip signature : 9D3ABB94
->Accurately ripped! (confidence 2)
Statistics
Read error : 0
Skipped (treated as error) : 0
Edge jitter error (maybe fixed) : 0
Atom jitter error (maybe fixed) : 0
Drift error (maybe fixed) : 0
Dropped bytes error (maybe fixed) : 0
Duplicated bytes error (maybe fixed) : 0
Inconsistency in error sectors : 0
Track 04
Filename : /Temp/Cubanismo - Greetings From Havana (2007) [FLAC]/04 - Paloma Sin Nido.flac
Pre-gap length : 00:02:03
Track gain : -7.65 dB
Peak : 0.994263
CRC32 hash (test run) : A6CEE65F
CRC32 hash : A6CEE65F
CRC32 hash (skip zero) : 24DF3ECD
AccurateRip signature : 15B3890A
->Accurately ripped! (confidence 2)
Statistics
Read error : 0
Skipped (treated as error) : 0
Edge jitter error (maybe fixed) : 0
Atom jitter error (maybe fixed) : 0
Drift error (maybe fixed) : 0
Dropped bytes error (maybe fixed) : 0
Duplicated bytes error (maybe fixed) : 0
Inconsistency in error sectors : 0
Track 05
Filename : /Temp/Cubanismo - Greetings From Havana (2007) [FLAC]/05 - Congo Real.flac
Pre-gap length : 00:02:03
Track gain : -7.20 dB
Peak : 0.994263
CRC32 hash (test run) : 5B7AD63F
CRC32 hash : 5B7AD63F
CRC32 hash (skip zero) : 36417E41
AccurateRip signature : 31A90394
->Accurately ripped! (confidence 2)
Statistics
Read error : 0
Skipped (treated as error) : 0
Edge jitter error (maybe fixed) : 0
Atom jitter error (maybe fixed) : 1
Drift error (maybe fixed) : 0
Dropped bytes error (maybe fixed) : 0
Duplicated bytes error (maybe fixed) : 0
Inconsistency in error sectors : 0
Track 06
Filename : /Temp/Cubanismo - Greetings From Havana (2007) [FLAC]/06 - Descarga Caliente.flac
Pre-gap length : 00:03:04
Track gain : -7.22 dB
Peak : 0.994263
CRC32 hash (test run) : 8DCBBDA5
CRC32 hash : 8DCBBDA5
CRC32 hash (skip zero) : 59FC2702
AccurateRip signature : 13941582
->Accurately ripped! (confidence 2)
Statistics
Read error : 0
Skipped (treated as error) : 0
Edge jitter error (maybe fixed) : 0
Atom jitter error (maybe fixed) : 0
Drift error (maybe fixed) : 0
Dropped bytes error (maybe fixed) : 0
Duplicated bytes error (maybe fixed) : 0
Inconsistency in error sectors : 0
Track 07
Filename : /Temp/Cubanismo - Greetings From Havana (2007) [FLAC]/07 - Celebrando.flac
Pre-gap length : 00:02:03
Track gain : -7.63 dB
Peak : 0.994263
CRC32 hash (test run) : 602E108F
CRC32 hash : 602E108F
CRC32 hash (skip zero) : 815C1E2C
AccurateRip signature : 24F10C3E
->Accurately ripped! (confidence 2)
Statistics
Read error : 0
Skipped (treated as error) : 0
Edge jitter error (maybe fixed) : 0
Atom jitter error (maybe fixed) : 0
Drift error (maybe fixed) : 0
Dropped bytes error (maybe fixed) : 0
Duplicated bytes error (maybe fixed) : 0
Inconsistency in error sectors : 0
Track 08
Filename : /Temp/Cubanismo - Greetings From Havana (2007) [FLAC]/08 - Presteme Su Mujer.flac
Pre-gap length : 00:02:03
Track gain : -5.80 dB
Peak : 0.994263
CRC32 hash (test run) : F91D1440
CRC32 hash : F91D1440
CRC32 hash (skip zero) : D61E6388
AccurateRip signature : AF22ED7C
->Accurately ripped! (confidence 2)
Statistics
Read error : 0
Skipped (treated as error) : 0
Edge jitter error (maybe fixed) : 0
Atom jitter error (maybe fixed) : 0
Drift error (maybe fixed) : 0
Dropped bytes error (maybe fixed) : 0
Duplicated bytes error (maybe fixed) : 0
Inconsistency in error sectors : 0
Track 09
Filename : /Temp/Cubanismo - Greetings From Havana (2007) [FLAC]/09 - Idilio.flac
Pre-gap length : 00:02:03
Track gain : -6.93 dB
Peak : 0.994263
CRC32 hash (test run) : A2F77D18
CRC32 hash : A2F77D18
CRC32 hash (skip zero) : F2F6073A
AccurateRip signature : 97E604D9
->Accurately ripped! (confidence 2)
Statistics
Read error : 0
Skipped (treated as error) : 0
Edge jitter error (maybe fixed) : 1
Atom jitter error (maybe fixed) : 1
Drift error (maybe fixed) : 0
Dropped bytes error (maybe fixed) : 0
Duplicated bytes error (maybe fixed) : 0
Inconsistency in error sectors : 0
Track 10
Filename : /Temp/Cubanismo - Greetings From Havana (2007) [FLAC]/10 - Mi Proposocion.flac
Pre-gap length : 00:02:03
Track gain : -5.90 dB
Peak : 0.994263
CRC32 hash (test run) : 6ACC5DCA
CRC32 hash : 6ACC5DCA
CRC32 hash (skip zero) : B510F3D8
AccurateRip signature : D4F578FF
->Accurately ripped! (confidence 2)
Statistics
Read error : 0
Skipped (treated as error) : 0
Edge jitter error (maybe fixed) : 0
Atom jitter error (maybe fixed) : 1
Drift error (maybe fixed) : 0
Dropped bytes error (maybe fixed) : 0
Duplicated bytes error (maybe fixed) : 0
Inconsistency in error sectors : 0
Track 11
Filename : /Temp/Cubanismo - Greetings From Havana (2007) [FLAC]/11 - Estiro Bastidores.flac
Pre-gap length : 00:02:03
Track gain : -8.36 dB
Peak : 0.994263
CRC32 hash (test run) : 44D54775
CRC32 hash : 44D54775
CRC32 hash (skip zero) : D0DCA8DF
AccurateRip signature : 29ED3B1C
->Accurately ripped! (confidence 2)
Statistics
Read error : 0
Skipped (treated as error) : 0
Edge jitter error (maybe fixed) : 0
Atom jitter error (maybe fixed) : 0
Drift error (maybe fixed) : 0
Dropped bytes error (maybe fixed) : 0
Duplicated bytes error (maybe fixed) : 0
Inconsistency in error sectors : 0
No errors occurred
End of status report
 
Содержание индексной карты (.CUE)
TITLE "Greetings From Havana"
PERFORMER "Cubanismo"
REM GENRE "Latin"
REM DATE 2007
FILE "01 - Calor En Santiago.wav" WAVE
TRACK 01 AUDIO
TITLE "Calor En Santiago"
INDEX 01 00:00:00
TRACK 02 AUDIO
TITLE "Ei Solar"
INDEX 00 05:20:26
FILE "02 - Ei Solar.wav" WAVE
INDEX 01 00:00:00
TRACK 03 AUDIO
TITLE "Petit Mambo"
INDEX 00 08:01:58
FILE "03 - Petit Mambo.wav" WAVE
INDEX 01 00:00:00
TRACK 04 AUDIO
TITLE "Paloma Sin Nido"
INDEX 00 06:19:53
FILE "04 - Paloma Sin Nido.wav" WAVE
INDEX 01 00:00:00
TRACK 05 AUDIO
TITLE "Congo Real"
INDEX 00 04:16:37
FILE "05 - Congo Real.wav" WAVE
INDEX 01 00:00:00
TRACK 06 AUDIO
TITLE "Descarga Caliente"
INDEX 00 04:03:17
FILE "06 - Descarga Caliente.wav" WAVE
INDEX 01 00:00:00
TRACK 07 AUDIO
TITLE "Celebrando"
INDEX 00 06:07:32
FILE "07 - Celebrando.wav" WAVE
INDEX 01 00:00:00
TRACK 08 AUDIO
TITLE "Presteme Su Mujer"
INDEX 00 07:05:14
FILE "08 - Presteme Su Mujer.wav" WAVE
INDEX 01 00:00:00
TRACK 09 AUDIO
TITLE "Idilio"
INDEX 00 05:20:24
FILE "09 - Idilio.wav" WAVE
INDEX 01 00:00:00
TRACK 10 AUDIO
TITLE "Mi Proposocion"
INDEX 00 05:06:47
FILE "10 - Mi Proposocion.wav" WAVE
INDEX 01 00:00:00
TRACK 11 AUDIO
TITLE "Estiro Bastidores"
INDEX 00 06:13:19
FILE "11 - Estiro Bastidores.wav" WAVE
INDEX 01 00:00:00
 
2001 - The Very Best Of ¡Cubanismo! - ¡Mucho Gusto!

Релиз: Original Release / Hannibal / HAN 1461 / CD
Тип рипа: tracks+.cue
Сканы: нет
Продолжительность: 1:06:25
Треклист
01. Mambo UK (5:39)
02. Descarga De Hoy (6:45)
03. Mulence (5:24)
04. Get Up, Stand Up (6:46)
05. Paso En Tampa (3:24)
06. Aprovecha (4:51)
07. El Plantal De Bartolo (4:46)
08. Pa' Que Gozen (5:36)
09. Marie Laveaux (4:49)
10. Could You Be Loved (6:36)
11. El Paso De Encarnación (5:19)
12. Salsa Pilón (6:30)
 
Лог создания рипа
Exact Audio Copy V0.99 prebeta 3 from 28. July 2007
EAC extraction logfile from 22. March 2009, 21:49
Cubanismo! / The Very Best Of ЎCubanismo! - ЎMucho Gusto!
Used drive : TSSTcorpDVD+-RW TS-L632H Adapter: 1 ID: 0
Read mode : Secure
Utilize accurate stream : Yes
Defeat audio cache : Yes
Make use of C2 pointers : No
Read offset correction : 6
Overread into Lead-In and Lead-Out : No
Fill up missing offset samples with silence : Yes
Delete leading and trailing silent blocks : No
Null samples used in CRC calculations : Yes
Used interface : Native Win32 interface for Win NT & 2000
Gap handling : Appended to previous track
Used output format : User Defined Encoder
Selected bitrate : 128 kBit/s
Quality : High
Add ID3 tag : No
Command line compressor : C:\Program Files\Exact Audio Copy\Flac\flac.exe
Additional command line options : -V -8 -T "artist=%a" -T "title=%t" -T "album=%g" -T "date=%y" -T "tracknumber=%n" -T "genre=%m" %s
TOC of the extracted CD
Track | Start | Length | Start sector | End sector
---------------------------------------------------------
1 | 0:00.32 | 5:38.70 | 32 | 25451
2 | 5:39.27 | 6:44.48 | 25452 | 55799
3 | 12:24.00 | 5:23.67 | 55800 | 80091
4 | 17:47.67 | 6:45.40 | 80092 | 110506
5 | 24:33.32 | 3:23.60 | 110507 | 125791
6 | 27:57.17 | 4:50.63 | 125792 | 147604
7 | 32:48.05 | 4:46.17 | 147605 | 169071
8 | 37:34.22 | 5:35.70 | 169072 | 194266
9 | 43:10.17 | 4:49.15 | 194267 | 215956
10 | 47:59.32 | 6:36.13 | 215957 | 245669
11 | 54:35.45 | 5:19.37 | 245670 | 269631
12 | 59:55.07 | 6:30.08 | 269632 | 298889
Track 1
Filename C:\Users\Alex\Torrents\Rips\Cubanismo! - 2001 - The Very Best Of ЎCubanismo! - ЎMucho Gusto!\01 - Mambo UK.wav
Pre-gap length 0:00:02.32
Peak level 98.8 %
Track quality 100.0 %
Test CRC E794043E
Copy CRC E794043E
Accurately ripped (confidence 2) [DBF6A686]
Copy OK
Track 2
Filename C:\Users\Alex\Torrents\Rips\Cubanismo! - 2001 - The Very Best Of ЎCubanismo! - ЎMucho Gusto!\02 - Descarga De Hoy.wav
Pre-gap length 0:00:03.14
Peak level 98.8 %
Track quality 100.0 %
Test CRC 256EDF6E
Copy CRC 256EDF6E
Accurately ripped (confidence 2) [BB4FF65B]
Copy OK
Track 3
Filename C:\Users\Alex\Torrents\Rips\Cubanismo! - 2001 - The Very Best Of ЎCubanismo! - ЎMucho Gusto!\03 - Mulence.wav
Pre-gap length 0:00:01.72
Peak level 100.0 %
Track quality 100.0 %
Test CRC 24962B9C
Copy CRC 24962B9C
Accurately ripped (confidence 2) [04DFED06]
Copy OK
Track 4
Filename C:\Users\Alex\Torrents\Rips\Cubanismo! - 2001 - The Very Best Of ЎCubanismo! - ЎMucho Gusto!\04 - Get Up, Stand Up.wav
Pre-gap length 0:00:02.21
Peak level 98.8 %
Track quality 100.0 %
Test CRC 6BA8EA72
Copy CRC 6BA8EA72
Accurately ripped (confidence 2) [F8C8D93F]
Copy OK
Track 5
Filename C:\Users\Alex\Torrents\Rips\Cubanismo! - 2001 - The Very Best Of ЎCubanismo! - ЎMucho Gusto!\05 - Paso En Tampa.wav
Pre-gap length 0:00:01.64
Peak level 96.6 %
Track quality 100.0 %
Test CRC E0BEA069
Copy CRC E0BEA069
Accurately ripped (confidence 2) [867E3BD4]
Copy OK
Track 6
Filename C:\Users\Alex\Torrents\Rips\Cubanismo! - 2001 - The Very Best Of ЎCubanismo! - ЎMucho Gusto!\06 - Aprovecha.wav
Pre-gap length 0:00:02.59
Peak level 98.8 %
Track quality 100.0 %
Test CRC 1D491145
Copy CRC 1D491145
Accurately ripped (confidence 2) [3C156801]
Copy OK
Track 7
Filename C:\Users\Alex\Torrents\Rips\Cubanismo! - 2001 - The Very Best Of ЎCubanismo! - ЎMucho Gusto!\07 - El Plantal De Bartolo.wav
Pre-gap length 0:00:02.49
Peak level 98.8 %
Track quality 99.9 %
Test CRC C3C0A244
Copy CRC C3C0A244
Accurately ripped (confidence 2) [719CCF9D]
Copy OK
Track 8
Filename C:\Users\Alex\Torrents\Rips\Cubanismo! - 2001 - The Very Best Of ЎCubanismo! - ЎMucho Gusto!\08 - Pa' Que Gozen.wav
Pre-gap length 0:00:03.04
Peak level 98.8 %
Track quality 100.0 %
Test CRC 0534B632
Copy CRC 0534B632
Accurately ripped (confidence 2) [37F6D068]
Copy OK
Track 9
Filename C:\Users\Alex\Torrents\Rips\Cubanismo! - 2001 - The Very Best Of ЎCubanismo! - ЎMucho Gusto!\09 - Marie Laveaux.wav
Pre-gap length 0:00:04.29
Peak level 100.0 %
Track quality 99.9 %
Test CRC 8465F973
Copy CRC 8465F973
Accurately ripped (confidence 2) [33CA6EE1]
Copy OK
Track 10
Filename C:\Users\Alex\Torrents\Rips\Cubanismo! - 2001 - The Very Best Of ЎCubanismo! - ЎMucho Gusto!\10 - Could You Be Loved.wav
Pre-gap length 0:00:01.59
Peak level 98.8 %
Track quality 99.9 %
Test CRC 411BBA54
Copy CRC 411BBA54
Accurately ripped (confidence 2) [54B0B3EB]
Copy OK
Track 11
Filename C:\Users\Alex\Torrents\Rips\Cubanismo! - 2001 - The Very Best Of ЎCubanismo! - ЎMucho Gusto!\11 - El Paso De Encarnaciуn.wav
Pre-gap length 0:00:02.19
Peak level 98.8 %
Track quality 100.0 %
Test CRC 0D862369
Copy CRC 0D862369
Accurately ripped (confidence 2) [8AE23853]
Copy OK
Track 12
Filename C:\Users\Alex\Torrents\Rips\Cubanismo! - 2001 - The Very Best Of ЎCubanismo! - ЎMucho Gusto!\12 - Salsa Pilуn.wav
Peak level 93.3 %
Track quality 100.0 %
Test CRC B447B425
Copy CRC B447B425
Accurately ripped (confidence 2) [B3D2B1CA]
Copy OK
All tracks accurately ripped
No errors occurred
End of status report
 
Содержание индексной карты (.CUE)
REM GENRE Cuban
REM DATE 2001
REM DISCID C30F910C
REM COMMENT "ExactAudioCopy v0.99pb3"
PERFORMER "Cubanismo!"
TITLE "The Very Best Of ЎCubanismo! - ЎMucho Gusto!"
FILE "Cubanismo! - 2001 - The Very Best Of ЎCubanismo! - ЎMucho Gusto!\01 - Mambo UK.wav" WAVE
TRACK 01 AUDIO
TITLE "Mambo UK"
PERFORMER "Cubanismo!"
PREGAP 00:00:32
INDEX 01 00:00:00
TRACK 02 AUDIO
TITLE "Descarga De Hoy"
PERFORMER "Cubanismo!"
INDEX 00 05:35:56
FILE "Cubanismo! - 2001 - The Very Best Of ЎCubanismo! - ЎMucho Gusto!\02 - Descarga De Hoy.wav" WAVE
INDEX 01 00:00:00
TRACK 03 AUDIO
TITLE "Mulence"
PERFORMER "Cubanismo!"
INDEX 00 06:42:51
FILE "Cubanismo! - 2001 - The Very Best Of ЎCubanismo! - ЎMucho Gusto!\03 - Mulence.wav" WAVE
INDEX 01 00:00:00
TRACK 04 AUDIO
TITLE "Get Up, Stand Up"
PERFORMER "Cubanismo!"
INDEX 00 05:21:46
FILE "Cubanismo! - 2001 - The Very Best Of ЎCubanismo! - ЎMucho Gusto!\04 - Get Up, Stand Up.wav" WAVE
INDEX 01 00:00:00
TRACK 05 AUDIO
TITLE "Paso En Tampa"
PERFORMER "Cubanismo!"
INDEX 00 06:43:51
FILE "Cubanismo! - 2001 - The Very Best Of ЎCubanismo! - ЎMucho Gusto!\05 - Paso En Tampa.wav" WAVE
INDEX 01 00:00:00
TRACK 06 AUDIO
TITLE "Aprovecha"
PERFORMER "Cubanismo!"
INDEX 00 03:21:01
FILE "Cubanismo! - 2001 - The Very Best Of ЎCubanismo! - ЎMucho Gusto!\06 - Aprovecha.wav" WAVE
INDEX 01 00:00:00
TRACK 07 AUDIO
TITLE "El Plantal De Bartolo"
PERFORMER "Cubanismo!"
INDEX 00 04:48:14
FILE "Cubanismo! - 2001 - The Very Best Of ЎCubanismo! - ЎMucho Gusto!\07 - El Plantal De Bartolo.wav" WAVE
INDEX 01 00:00:00
TRACK 08 AUDIO
TITLE "Pa' Que Gozen"
PERFORMER "Cubanismo!"
INDEX 00 04:43:13
FILE "Cubanismo! - 2001 - The Very Best Of ЎCubanismo! - ЎMucho Gusto!\08 - Pa' Que Gozen.wav" WAVE
INDEX 01 00:00:00
TRACK 09 AUDIO
TITLE "Marie Laveaux"
PERFORMER "Cubanismo!"
INDEX 00 05:31:41
FILE "Cubanismo! - 2001 - The Very Best Of ЎCubanismo! - ЎMucho Gusto!\09 - Marie Laveaux.wav" WAVE
INDEX 01 00:00:00
TRACK 10 AUDIO
TITLE "Could You Be Loved"
PERFORMER "Cubanismo!"
INDEX 00 04:47:31
FILE "Cubanismo! - 2001 - The Very Best Of ЎCubanismo! - ЎMucho Gusto!\10 - Could You Be Loved.wav" WAVE
INDEX 01 00:00:00
TRACK 11 AUDIO
TITLE "El Paso De Encarnaciуn"
PERFORMER "Cubanismo!"
INDEX 00 06:33:69
FILE "Cubanismo! - 2001 - The Very Best Of ЎCubanismo! - ЎMucho Gusto!\11 - El Paso De Encarnaciуn.wav" WAVE
INDEX 01 00:00:00
FILE "Cubanismo! - 2001 - The Very Best Of ЎCubanismo! - ЎMucho Gusto!\12 - Salsa Pilуn.wav" WAVE
TRACK 12 AUDIO
TITLE "Salsa Pilуn"
PERFORMER "Cubanismo!"
INDEX 01 00:00:00
 
2000 - Mardi Gras Mambo: ¡Cubanismo! In New Orleans

Релиз: Original Release / Hannibal / CD
Тип рипа: tracks+.cue
Сканы: нет
Продолжительность: 56:18
Треклист
01. Marie Laveaux (4:48)
02. Mother In Law (5:16)
03. Paso En Tampa (3:23)
04. Shallow Water Suite (6:17)
05. Mardi Gras Mambo (4:12)
06. Monteorlines (0:26)
07. It Do Me Good (5:20)
08. Alemany's BooGaloo (6:16)
09. Rampart Street Rumba (4:35)
10. Nothing Up My Sleeve (4:05)
11. Gumbo Son (5:00)
12. Cuborleans (6:40)
 
Лог создания рипа
X Lossless Decoder version 20100518 (120.3)
XLD extraction logfile from 2010-06-28 23:15:30 -0400
Cubanismo / Mardi Gras Mambo
Used drive : MATSHITA DVD-R UJ-857D (revision KBVB)
Use cdparanoia mode : YES (CDParanoia III 10.2 engine)
Disable audio cache : OK for the drive with cache less than 2750KB
Make use of C2 pointers : NO
Read offset correction : 102
Max retry count : 100
TOC of the extracted CD
Track | Start | Length | Start sector | End sector
---------------------------------------------------------
1 | 00:00:32 | 04:47:25 | 32 | 21581
2 | 04:47:57 | 05:16:23 | 21582 | 45304
3 | 10:04:05 | 03:23:17 | 45305 | 60546
4 | 13:27:22 | 06:17:30 | 60547 | 88851
5 | 19:44:52 | 04:12:30 | 88852 | 107781
6 | 23:57:07 | 00:25:50 | 107782 | 109706
7 | 24:22:57 | 05:19:50 | 109707 | 133681
8 | 29:42:32 | 06:16:30 | 133682 | 161911
9 | 35:58:62 | 04:35:05 | 161912 | 182541
10 | 40:33:67 | 04:04:65 | 182542 | 200906
11 | 44:38:57 | 04:59:40 | 200907 | 223371
12 | 49:38:22 | 06:39:53 | 223372 | 253349
All Tracks
Album gain : -8.17 dB
Peak : 0.999969
Track 01
Filename : /Temp/Cubanismo - Mardi Gras Mambo (2000) [FLAC]/01 - Marie Laveaux.flac
Pre-gap length : 00:02:32
Track gain : -8.36 dB
Peak : 0.999969
CRC32 hash (test run) : 3CE80068
CRC32 hash : 3CE80068
CRC32 hash (skip zero) : 5A914567
AccurateRip signature : 2B304372
->Track not present in AccurateRip database.
Statistics
Read error : 0
Skipped (treated as error) : 0
Edge jitter error (maybe fixed) : 0
Atom jitter error (maybe fixed) : 0
Drift error (maybe fixed) : 0
Dropped bytes error (maybe fixed) : 0
Duplicated bytes error (maybe fixed) : 0
Inconsistency in error sectors : 0
Track 02
Filename : /Temp/Cubanismo - Mardi Gras Mambo (2000) [FLAC]/02 - Mother In Law.flac
Pre-gap length : 00:01:37
Track gain : -8.08 dB
Peak : 0.999969
CRC32 hash (test run) : BFF614A0
CRC32 hash : BFF614A0
CRC32 hash (skip zero) : BC69A7EA
AccurateRip signature : 49D85807
->Track not present in AccurateRip database.
Statistics
Read error : 0
Skipped (treated as error) : 0
Edge jitter error (maybe fixed) : 0
Atom jitter error (maybe fixed) : 0
Drift error (maybe fixed) : 0
Dropped bytes error (maybe fixed) : 0
Duplicated bytes error (maybe fixed) : 0
Inconsistency in error sectors : 0
Track 03
Filename : /Temp/Cubanismo - Mardi Gras Mambo (2000) [FLAC]/03 - Paso En Tampa.flac
Pre-gap length : 00:00:35
Track gain : -7.45 dB
Peak : 0.861023
CRC32 hash (test run) : 91A5B2BD
CRC32 hash : 91A5B2BD
CRC32 hash (skip zero) : 531149AD
AccurateRip signature : C9A1E276
->Track not present in AccurateRip database.
Statistics
Read error : 0
Skipped (treated as error) : 0
Edge jitter error (maybe fixed) : 0
Atom jitter error (maybe fixed) : 0
Drift error (maybe fixed) : 0
Dropped bytes error (maybe fixed) : 0
Duplicated bytes error (maybe fixed) : 0
Inconsistency in error sectors : 0
Track 04
Filename : /Temp/Cubanismo - Mardi Gras Mambo (2000) [FLAC]/04 - Shallow Water Suite.flac
Pre-gap length : 00:02:12
Track gain : -8.27 dB
Peak : 0.933258
CRC32 hash (test run) : CDA796A7
CRC32 hash : CDA796A7
CRC32 hash (skip zero) : 944D59F2
AccurateRip signature : 8036F76B
->Track not present in AccurateRip database.
Statistics
Read error : 0
Skipped (treated as error) : 0
Edge jitter error (maybe fixed) : 0
Atom jitter error (maybe fixed) : 0
Drift error (maybe fixed) : 0
Dropped bytes error (maybe fixed) : 0
Duplicated bytes error (maybe fixed) : 0
Inconsistency in error sectors : 0
Track 05
Filename : /Temp/Cubanismo - Mardi Gras Mambo (2000) [FLAC]/05 - Mardi Gras Mambo.flac
Pre-gap length : 00:00:50
Track gain : -8.04 dB
Peak : 0.966064
CRC32 hash (test run) : 8A64D385
CRC32 hash : 8A64D385
CRC32 hash (skip zero) : ABF15739
AccurateRip signature : 1E62D0EA
->Track not present in AccurateRip database.
Statistics
Read error : 0
Skipped (treated as error) : 0
Edge jitter error (maybe fixed) : 0
Atom jitter error (maybe fixed) : 0
Drift error (maybe fixed) : 0
Dropped bytes error (maybe fixed) : 0
Duplicated bytes error (maybe fixed) : 0
Inconsistency in error sectors : 0
Track 06
Filename : /Temp/Cubanismo - Mardi Gras Mambo (2000) [FLAC]/06 - Monteorlines.flac
Track gain : -2.44 dB
Peak : 0.837341
CRC32 hash (test run) : 0BC676C5
CRC32 hash : 0BC676C5
CRC32 hash (skip zero) : 514E7D73
AccurateRip signature : 8383F41F
->Track not present in AccurateRip database.
Statistics
Read error : 0
Skipped (treated as error) : 0
Edge jitter error (maybe fixed) : 0
Atom jitter error (maybe fixed) : 0
Drift error (maybe fixed) : 0
Dropped bytes error (maybe fixed) : 0
Duplicated bytes error (maybe fixed) : 0
Inconsistency in error sectors : 0
Track 07
Filename : /Temp/Cubanismo - Mardi Gras Mambo (2000) [FLAC]/07 - It Do Me Good.flac
Pre-gap length : 00:00:10
Track gain : -6.99 dB
Peak : 0.999969
CRC32 hash (test run) : ADFE2187
CRC32 hash : ADFE2187
CRC32 hash (skip zero) : 66FFE547
AccurateRip signature : 0D5ACC0A
->Track not present in AccurateRip database.
Statistics
Read error : 0
Skipped (treated as error) : 0
Edge jitter error (maybe fixed) : 0
Atom jitter error (maybe fixed) : 0
Drift error (maybe fixed) : 0
Dropped bytes error (maybe fixed) : 0
Duplicated bytes error (maybe fixed) : 0
Inconsistency in error sectors : 0
Track 08
Filename : /Temp/Cubanismo - Mardi Gras Mambo (2000) [FLAC]/08 - Alemany's BooGaloo.flac
Pre-gap length : 00:01:40
Track gain : -7.54 dB
Peak : 0.999969
CRC32 hash (test run) : CEA97A8D
CRC32 hash : CEA97A8D
CRC32 hash (skip zero) : 7466B741
AccurateRip signature : B3DC2D62
->Track not present in AccurateRip database.
Statistics
Read error : 0
Skipped (treated as error) : 0
Edge jitter error (maybe fixed) : 0
Atom jitter error (maybe fixed) : 0
Drift error (maybe fixed) : 0
Dropped bytes error (maybe fixed) : 0
Duplicated bytes error (maybe fixed) : 0
Inconsistency in error sectors : 0
Track 09
Filename : /Temp/Cubanismo - Mardi Gras Mambo (2000) [FLAC]/09 - Rampart Street Rumba.flac
Pre-gap length : 00:01:50
Track gain : -7.98 dB
Peak : 0.955017
CRC32 hash (test run) : 1606B003
CRC32 hash : 1606B003
CRC32 hash (skip zero) : A268BAE1
AccurateRip signature : 828D58D1
->Track not present in AccurateRip database.
Statistics
Read error : 0
Skipped (treated as error) : 0
Edge jitter error (maybe fixed) : 0
Atom jitter error (maybe fixed) : 0
Drift error (maybe fixed) : 0
Dropped bytes error (maybe fixed) : 0
Duplicated bytes error (maybe fixed) : 0
Inconsistency in error sectors : 0
Track 10
Filename : /Temp/Cubanismo - Mardi Gras Mambo (2000) [FLAC]/10 - Nothing Up My Sleeve.flac
Pre-gap length : 00:01:15
Track gain : -5.72 dB
Peak : 0.999969
CRC32 hash (test run) : 19440986
CRC32 hash : 19440986
CRC32 hash (skip zero) : D2D2A94D
AccurateRip signature : 24CD79A6
->Track not present in AccurateRip database.
Statistics
Read error : 0
Skipped (treated as error) : 0
Edge jitter error (maybe fixed) : 0
Atom jitter error (maybe fixed) : 0
Drift error (maybe fixed) : 0
Dropped bytes error (maybe fixed) : 0
Duplicated bytes error (maybe fixed) : 0
Inconsistency in error sectors : 0
Track 11
Filename : /Temp/Cubanismo - Mardi Gras Mambo (2000) [FLAC]/11 - Gumbo Son.flac
Pre-gap length : 00:01:52
Track gain : -9.19 dB
Peak : 0.999969
CRC32 hash (test run) : 16FE3E1F
CRC32 hash : 16FE3E1F
CRC32 hash (skip zero) : DD73D3AA
AccurateRip signature : 5BC73123
->Track not present in AccurateRip database.
Statistics
Read error : 0
Skipped (treated as error) : 0
Edge jitter error (maybe fixed) : 0
Atom jitter error (maybe fixed) : 0
Drift error (maybe fixed) : 0
Dropped bytes error (maybe fixed) : 0
Duplicated bytes error (maybe fixed) : 0
Inconsistency in error sectors : 0
Track 12
Filename : /Temp/Cubanismo - Mardi Gras Mambo (2000) [FLAC]/12 - Cuborleans.flac
Pre-gap length : 00:01:55
Track gain : -8.89 dB
Peak : 0.988556
CRC32 hash (test run) : 9DBB4714
CRC32 hash : 9DBB4714
CRC32 hash (skip zero) : A016C133
AccurateRip signature : 7B93D98F
->Track not present in AccurateRip database.
Statistics
Read error : 0
Skipped (treated as error) : 0
Edge jitter error (maybe fixed) : 0
Atom jitter error (maybe fixed) : 0
Drift error (maybe fixed) : 0
Dropped bytes error (maybe fixed) : 0
Duplicated bytes error (maybe fixed) : 0
Inconsistency in error sectors : 0
No errors occurred
End of status report
 
Содержание индексной карты (.CUE)
TITLE "Mardi Gras Mambo"
PERFORMER "Cubanismo"
REM GENRE "Latin"
REM DATE 2000
REM DISCNUMBER 1
REM TOTALDISCS 1
REM DISCID B00D320C
FILE "01 - Marie Laveaux.wav" WAVE
TRACK 01 AUDIO
TITLE "Marie Laveaux"
SONGWRITER "Jesus Alemany"
ISRC USPA30000168
INDEX 00 00:00:00
INDEX 01 00:00:32
TRACK 02 AUDIO
TITLE "Mother In Law"
SONGWRITER "Jesus Alemany"
ISRC USPA30000169
INDEX 00 04:45:63
FILE "02 - Mother In Law.wav" WAVE
INDEX 01 00:00:00
TRACK 03 AUDIO
TITLE "Paso En Tampa"
SONGWRITER "Jesus Alemany"
ISRC USPA30000170
INDEX 00 05:15:63
FILE "03 - Paso En Tampa.wav" WAVE
INDEX 01 00:00:00
TRACK 04 AUDIO
TITLE "Shallow Water Suite"
SONGWRITER "Jesus Alemany"
ISRC USPA30000171
INDEX 00 03:21:05
FILE "04 - Shallow Water Suite.wav" WAVE
INDEX 01 00:00:00
TRACK 05 AUDIO
TITLE "Mardi Gras Mambo"
SONGWRITER "Jesus Alemany"
ISRC USPA30000177
INDEX 00 06:16:55
FILE "05 - Mardi Gras Mambo.wav" WAVE
INDEX 01 00:00:00
FILE "06 - Monteorlines.wav" WAVE
TRACK 06 AUDIO
TITLE "Monteorlines"
SONGWRITER "Jesus Alemany"
ISRC USPA30000172
INDEX 01 00:00:00
TRACK 07 AUDIO
TITLE "It Do Me Good"
SONGWRITER "Jesus Alemany"
ISRC USPA30000173
INDEX 00 00:25:40
FILE "07 - It Do Me Good.wav" WAVE
INDEX 01 00:00:00
TRACK 08 AUDIO
TITLE "Alemany's BooGaloo"
SONGWRITER "Jesus Alemany"
ISRC USPA30000174
INDEX 00 05:18:10
FILE "08 - Alemany's BooGaloo.wav" WAVE
INDEX 01 00:00:00
TRACK 09 AUDIO
TITLE "Rampart Street Rumba"
SONGWRITER "Jesus Alemany"
ISRC USPA30000175
INDEX 00 06:14:55
FILE "09 - Rampart Street Rumba.wav" WAVE
INDEX 01 00:00:00
TRACK 10 AUDIO
TITLE "Nothing Up My Sleeve"
SONGWRITER "Jesus Alemany"
ISRC USPA30000176
INDEX 00 04:33:65
FILE "10 - Nothing Up My Sleeve.wav" WAVE
INDEX 01 00:00:00
TRACK 11 AUDIO
TITLE "Gumbo Son"
SONGWRITER "Jesus Alemany"
ISRC USPA30000178
INDEX 00 04:03:13
FILE "11 - Gumbo Son.wav" WAVE
INDEX 01 00:00:00
TRACK 12 AUDIO
TITLE "Cuborleans"
SONGWRITER "Jesus Alemany"
ISRC USPA30000179
INDEX 00 04:57:60
FILE "12 - Cuborleans.wav" WAVE
INDEX 01 00:00:00
 
1998 - Reencarnación

Релиз: Original Release / Hannibal / HNCD 1429 / CD
Тип рипа: tracks+.cue
Сканы: нет
Продолжительность: 58:09
Треклист
01. El Platanal de Bartolo (4:45)
02. Mambo UK (5:37)
03. El Paso de Encarnación (5:19)
04. Ibiono Utereran (4:38)
05. El Perico (6:01)
06. Jamming in Nijmegen (5:12)
07. Canto Al Monte (4:54)
08. ¿Donde Está Cotó? (5:18)
09. Mimi (6:20)
10. Con Maña Se Rompe (3:54)
11. En las Delicias (6:13)
 
Лог создания рипа
X Lossless Decoder version 20100918 (122.1)
XLD extraction logfile from 2010-09-18 10:20:52 -0700
¡Cubanismo! / Reencarnación
Used drive : MATSHITA DVD-R UJ-835E (revision GAND)
Use cdparanoia mode : YES (CDParanoia III 10.2 engine)
Disable audio cache : OK for the drive with cache less than 2750KB
Make use of C2 pointers : NO
Read offset correction : 102
Max retry count : 100
Gap status : Analyzed, Appended (except HTOA)
TOC of the extracted CD
Track | Start | Length | Start sector | End sector
---------------------------------------------------------
1 | 00:00:00 | 04:45:27 | 0 | 21401
2 | 04:45:27 | 05:36:53 | 21402 | 46654
3 | 10:22:05 | 05:18:55 | 46655 | 70559
4 | 15:40:60 | 04:37:60 | 70560 | 91394
5 | 20:18:45 | 06:00:50 | 91395 | 118444
6 | 26:19:20 | 05:11:60 | 118445 | 141829
7 | 31:31:05 | 04:53:72 | 141830 | 163876
8 | 36:25:02 | 05:18:03 | 163877 | 187729
9 | 41:43:05 | 06:19:70 | 187730 | 216224
10 | 48:03:00 | 03:53:62 | 216225 | 233761
11 | 51:56:62 | 06:12:38 | 233762 | 261699
List of alternate offset correction values
# | Absolute | Relative | Confidence
------------------------------------------
1 | 2438 | 2336 | 5
All Tracks
Album gain : -6.59 dB
Peak : 0.991669
Track 01
Filename : /XLD Rips/01 El Platanal de Bartolo.flac
Pre-gap length : 00:02:00
Track gain : -6.03 dB
Peak : 0.979950
CRC32 hash (test run) : 8019D461
CRC32 hash : 8019D461
CRC32 hash (skip zero) : DFBAA545
AccurateRip signature : E48B7C62
->Accurately ripped! (confidence 10)
Statistics
Read error : 0
Skipped (treated as error) : 0
Edge jitter error (maybe fixed) : 0
Atom jitter error (maybe fixed) : 0
Drift error (maybe fixed) : 0
Dropped bytes error (maybe fixed) : 0
Duplicated bytes error (maybe fixed) : 0
Inconsistency in error sectors : 0
Track 02
Filename : /XLD Rips/02 Mambo UK.flac
Pre-gap length : 00:00:65
Track gain : -6.57 dB
Peak : 0.980591
CRC32 hash (test run) : C8E3ECF6
CRC32 hash : C8E3ECF6
CRC32 hash (skip zero) : 9FD79FA6
AccurateRip signature : 6BF00EF3
->Accurately ripped! (confidence 10)
Statistics
Read error : 0
Skipped (treated as error) : 0
Edge jitter error (maybe fixed) : 0
Atom jitter error (maybe fixed) : 0
Drift error (maybe fixed) : 0
Dropped bytes error (maybe fixed) : 0
Duplicated bytes error (maybe fixed) : 0
Inconsistency in error sectors : 0
Track 03
Filename : /XLD Rips/03 El Paso de Encarnación.flac
Pre-gap length : 00:00:15
Track gain : -7.64 dB
Peak : 0.980621
CRC32 hash (test run) : 20D81272
CRC32 hash : 20D81272
CRC32 hash (skip zero) : 7BF1E4C0
AccurateRip signature : 5560A9CF
->Accurately ripped! (confidence 10)
Statistics
Read error : 0
Skipped (treated as error) : 0
Edge jitter error (maybe fixed) : 0
Atom jitter error (maybe fixed) : 0
Drift error (maybe fixed) : 0
Dropped bytes error (maybe fixed) : 0
Duplicated bytes error (maybe fixed) : 0
Inconsistency in error sectors : 0
Track 04
Filename : /XLD Rips/04 Ibiono Utereran.flac
Pre-gap length : 00:00:18
Track gain : -4.08 dB
Peak : 0.976868
CRC32 hash (test run) : C42210D0
CRC32 hash : C42210D0
CRC32 hash (skip zero) : 7D46B9D6
AccurateRip signature : CD886481
->Accurately ripped! (confidence 10)
Statistics
Read error : 0
Skipped (treated as error) : 0
Edge jitter error (maybe fixed) : 0
Atom jitter error (maybe fixed) : 0
Drift error (maybe fixed) : 0
Dropped bytes error (maybe fixed) : 0
Duplicated bytes error (maybe fixed) : 0
Inconsistency in error sectors : 0
Track 05
Filename : /XLD Rips/05 El Perico.flac
Pre-gap length : 00:01:10
Track gain : -4.83 dB
Peak : 0.979492
CRC32 hash (test run) : 10D20809
CRC32 hash : 10D20809
CRC32 hash (skip zero) : F65B2070
AccurateRip signature : 58445F3A
->Accurately ripped! (confidence 10)
Statistics
Read error : 0
Skipped (treated as error) : 0
Edge jitter error (maybe fixed) : 0
Atom jitter error (maybe fixed) : 0
Drift error (maybe fixed) : 0
Dropped bytes error (maybe fixed) : 0
Duplicated bytes error (maybe fixed) : 0
Inconsistency in error sectors : 0
Track 06
Filename : /XLD Rips/06 Jamming in Nijmegen.flac
Pre-gap length : 00:02:58
Track gain : -5.35 dB
Peak : 0.980560
CRC32 hash (test run) : 4AC236BB
CRC32 hash : 4AC236BB
CRC32 hash (skip zero) : 65E3E5B9
AccurateRip signature : 7FA00F0D
->Accurately ripped! (confidence 10)
Statistics
Read error : 0
Skipped (treated as error) : 0
Edge jitter error (maybe fixed) : 0
Atom jitter error (maybe fixed) : 0
Drift error (maybe fixed) : 0
Dropped bytes error (maybe fixed) : 0
Duplicated bytes error (maybe fixed) : 0
Inconsistency in error sectors : 0
Track 07
Filename : /XLD Rips/07 Canto Al Monte.flac
Track gain : -8.01 dB
Peak : 0.980896
CRC32 hash (test run) : 9D1AEEA7
CRC32 hash : 9D1AEEA7
CRC32 hash (skip zero) : EABB5633
AccurateRip signature : C2348C51
->Accurately ripped! (confidence 10)
Statistics
Read error : 0
Skipped (treated as error) : 0
Edge jitter error (maybe fixed) : 0
Atom jitter error (maybe fixed) : 0
Drift error (maybe fixed) : 0
Dropped bytes error (maybe fixed) : 0
Duplicated bytes error (maybe fixed) : 0
Inconsistency in error sectors : 0
Track 08
Filename : /XLD Rips/08 ¿Donde Está Cotó?.flac
Pre-gap length : 00:00:35
Track gain : -6.47 dB
Peak : 0.975830
CRC32 hash (test run) : B5F90493
CRC32 hash : B5F90493
CRC32 hash (skip zero) : FE9CDFAC
AccurateRip signature : C327AE9D
->Accurately ripped! (confidence 9)
Statistics
Read error : 0
Skipped (treated as error) : 0
Edge jitter error (maybe fixed) : 0
Atom jitter error (maybe fixed) : 0
Drift error (maybe fixed) : 0
Dropped bytes error (maybe fixed) : 0
Duplicated bytes error (maybe fixed) : 0
Inconsistency in error sectors : 0
Track 09
Filename : /XLD Rips/09 Mimi.flac
Pre-gap length : 00:00:25
Track gain : -6.72 dB
Peak : 0.980347
CRC32 hash (test run) : 226B3573
CRC32 hash : 226B3573
CRC32 hash (skip zero) : 5D0C80D7
AccurateRip signature : 7C16868C
->Accurately ripped! (confidence 9)
Statistics
Read error : 0
Skipped (treated as error) : 0
Edge jitter error (maybe fixed) : 0
Atom jitter error (maybe fixed) : 0
Drift error (maybe fixed) : 0
Dropped bytes error (maybe fixed) : 0
Duplicated bytes error (maybe fixed) : 0
Inconsistency in error sectors : 0
Track 10
Filename : /XLD Rips/10 Con Maña Se Rompe.flac
Pre-gap length : 00:00:43
Track gain : -7.02 dB
Peak : 0.981079
CRC32 hash (test run) : FAF11BEA
CRC32 hash : FAF11BEA
CRC32 hash (skip zero) : 0FC2939C
AccurateRip signature : 3AFE2947
->Accurately ripped! (confidence 9)
Statistics
Read error : 0
Skipped (treated as error) : 0
Edge jitter error (maybe fixed) : 0
Atom jitter error (maybe fixed) : 0
Drift error (maybe fixed) : 0
Dropped bytes error (maybe fixed) : 0
Duplicated bytes error (maybe fixed) : 0
Inconsistency in error sectors : 0
Track 11
Filename : /XLD Rips/11 En las Delicias.flac
Pre-gap length : 00:00:40
Track gain : -6.02 dB
Peak : 0.991669
CRC32 hash (test run) : A3025DB4
CRC32 hash : A3025DB4
CRC32 hash (skip zero) : D4468DAE
AccurateRip signature : 3D0477CD
->Accurately ripped! (confidence 9)
Statistics
Read error : 0
Skipped (treated as error) : 0
Edge jitter error (maybe fixed) : 0
Atom jitter error (maybe fixed) : 0
Drift error (maybe fixed) : 0
Dropped bytes error (maybe fixed) : 0
Duplicated bytes error (maybe fixed) : 0
Inconsistency in error sectors : 0
No errors occurred
End of status report
 
Содержание индексной карты (.CUE)
TITLE "Reencarnación"
PERFORMER "¡Cubanismo!"
REM GENRE "Latin"
REM DATE 1998
REM DISCID 990DA10B
REM REPLAYGAIN_ALBUM_GAIN -6.59 dB
REM REPLAYGAIN_ALBUM_PEAK 0.991669
FILE "01 El Platanal de Bartolo.wav" WAVE
TRACK 01 AUDIO
TITLE "El Platanal de Bartolo"
PERFORMER "¡Cubanismo!"
ISRC USRY29801033
REM REPLAYGAIN_TRACK_GAIN -6.03 dB
REM REPLAYGAIN_TRACK_PEAK 0.979950
INDEX 01 00:00:00
TRACK 02 AUDIO
TITLE "Mambo UK"
PERFORMER "¡Cubanismo!"
ISRC USRY29801034
REM REPLAYGAIN_TRACK_GAIN -6.57 dB
REM REPLAYGAIN_TRACK_PEAK 0.980591
INDEX 00 04:44:37
FILE "02 Mambo UK.wav" WAVE
INDEX 01 00:00:00
TRACK 03 AUDIO
TITLE "El Paso de Encarnación"
PERFORMER "¡Cubanismo!"
ISRC USRY29801035
REM REPLAYGAIN_TRACK_GAIN -7.64 dB
REM REPLAYGAIN_TRACK_PEAK 0.980621
INDEX 00 05:36:38
FILE "03 El Paso de Encarnación.wav" WAVE
INDEX 01 00:00:00
TRACK 04 AUDIO
TITLE "Ibiono Utereran"
PERFORMER "¡Cubanismo!"
ISRC USRY29801040
REM REPLAYGAIN_TRACK_GAIN -4.08 dB
REM REPLAYGAIN_TRACK_PEAK 0.976868
INDEX 00 05:18:37
FILE "04 Ibiono Utereran.wav" WAVE
INDEX 01 00:00:00
TRACK 05 AUDIO
TITLE "El Perico"
PERFORMER "¡Cubanismo!"
ISRC USRY29801039
REM REPLAYGAIN_TRACK_GAIN -4.83 dB
REM REPLAYGAIN_TRACK_PEAK 0.979492
INDEX 00 04:36:50
FILE "05 El Perico.wav" WAVE
INDEX 01 00:00:00
TRACK 06 AUDIO
TITLE "Jamming in Nijmegen"
PERFORMER "¡Cubanismo!"
ISRC USRY29801038
REM REPLAYGAIN_TRACK_GAIN -5.35 dB
REM REPLAYGAIN_TRACK_PEAK 0.980560
INDEX 00 05:57:67
FILE "06 Jamming in Nijmegen.wav" WAVE
INDEX 01 00:00:00
FILE "07 Canto Al Monte.wav" WAVE
TRACK 07 AUDIO
TITLE "Canto Al Monte"
PERFORMER "¡Cubanismo!"
ISRC USRY29801037
REM REPLAYGAIN_TRACK_GAIN -8.01 dB
REM REPLAYGAIN_TRACK_PEAK 0.980896
INDEX 01 00:00:00
TRACK 08 AUDIO
TITLE "¿Donde Está Cotó?"
PERFORMER "¡Cubanismo!"
ISRC USRY29801041
REM REPLAYGAIN_TRACK_GAIN -6.47 dB
REM REPLAYGAIN_TRACK_PEAK 0.975830
INDEX 00 04:53:37
FILE "08 ¿Donde Está Cotó?.wav" WAVE
INDEX 01 00:00:00
TRACK 09 AUDIO
TITLE "Mimi"
PERFORMER "¡Cubanismo!"
ISRC USRY29801036
REM REPLAYGAIN_TRACK_GAIN -6.72 dB
REM REPLAYGAIN_TRACK_PEAK 0.980347
INDEX 00 05:17:53
FILE "09 Mimi.wav" WAVE
INDEX 01 00:00:00
TRACK 10 AUDIO
TITLE "Con Maña Se Rompe"
PERFORMER "¡Cubanismo!"
ISRC USRY29801042
REM REPLAYGAIN_TRACK_GAIN -7.02 dB
REM REPLAYGAIN_TRACK_PEAK 0.981079
INDEX 00 06:19:27
FILE "10 Con Maña Se Rompe.wav" WAVE
INDEX 01 00:00:00
TRACK 11 AUDIO
TITLE "En las Delicias"
PERFORMER "¡Cubanismo!"
ISRC USRY29801043
REM REPLAYGAIN_TRACK_GAIN -6.02 dB
REM REPLAYGAIN_TRACK_PEAK 0.991669
INDEX 00 03:53:22
FILE "11 En las Delicias.wav" WAVE
INDEX 01 00:00:00
 
1997 - Malembe

Релиз: Original Release / Hannibal / HNCD 1411 / CD
Тип рипа: tracks+.cue
Сканы: нет
Продолжительность: 57:45
Треклист
01. Mulence (5:23)
02. Salsa Pilón (6:31)
03. Montuno Alegre (4:51)
04. El Preguntón (5:24)
05. Now In Marianao (6:14)
06. Cubanismo Llegó (7:33)
07. Danzón 'Daulena' (6:13)
08. Mar Y Tierra (5:11)
09. Malembe (10:24)
 
Лог создания рипа
Exact Audio Copy V0.99 prebeta 5 from 4. May 2009
EAC extraction logfile from 7. February 2010, 0:46
ЎCubanismo! / Malembe
Used drive : BENQ DVD DD DW1620 Adapter: 0 ID: 1
Read mode : Secure
Utilize accurate stream : Yes
Defeat audio cache : Yes
Make use of C2 pointers : No
Read offset correction : 618
Overread into Lead-In and Lead-Out : No
Fill up missing offset samples with silence : Yes
Delete leading and trailing silent blocks : No
Null samples used in CRC calculations : Yes
Used interface : Installed external ASPI interface
Gap handling : Appended to previous track
Used output format : User Defined Encoder
Selected bitrate : 128 kBit/s
Quality : High
Add ID3 tag : No
Command line compressor : C:\Program Files\FLAC\flac.exe
Additional command line options : -V -8 -T "artist=%a" -T "title=%t" -T "album=%g" -T "date=%y" -T "tracknumber=%n" -T "genre=%m" %s
TOC of the extracted CD
Track | Start | Length | Start sector | End sector
---------------------------------------------------------
1 | 0:00.00 | 5:23.37 | 0 | 24261
2 | 5:23.37 | 6:30.70 | 24262 | 53581
3 | 11:54.32 | 4:51.15 | 53582 | 75421
4 | 16:45.47 | 5:24.28 | 75422 | 99749
5 | 22:10.00 | 6:14.02 | 99750 | 127801
6 | 28:24.02 | 7:33.30 | 127802 | 161806
7 | 35:57.32 | 6:12.58 | 161807 | 189764
8 | 42:10.15 | 5:10.50 | 189765 | 213064
9 | 47:20.65 | 10:24.17 | 213065 | 259881
Track 1
Filename F:\Music\Salsa\ЎCubanismo!\Malembe - 1997 - Flac\01 - Mulence.wav
Pre-gap length 0:00:02.00
Peak level 88.0 %
Track quality 100.0 %
Test CRC FC7B98F4
Copy CRC FC7B98F4
Accurately ripped (confidence 9) [94025D71]
Copy OK
Track 2
Filename F:\Music\Salsa\ЎCubanismo!\Malembe - 1997 - Flac\02 - Salsa Pilуn.wav
Pre-gap length 0:00:00.02
Peak level 99.3 %
Track quality 100.0 %
Test CRC 82CE4DB4
Copy CRC 82CE4DB4
Accurately ripped (confidence 9) [FA5C3A7C]
Copy OK
Track 3
Filename F:\Music\Salsa\ЎCubanismo!\Malembe - 1997 - Flac\03 - Montuno Alegre.wav
Pre-gap length 0:00:00.09
Peak level 100.0 %
Track quality 99.9 %
Test CRC 06F8CA1B
Copy CRC 06F8CA1B
Accurately ripped (confidence 9) [D20E9485]
Copy OK
Track 4
Filename F:\Music\Salsa\ЎCubanismo!\Malembe - 1997 - Flac\04 - El Preguntуn.wav
Pre-gap length 0:00:00.02
Peak level 100.0 %
Track quality 100.0 %
Test CRC CAA672DE
Copy CRC CAA672DE
Accurately ripped (confidence 9) [B62CCD52]
Copy OK
Track 5
Filename F:\Music\Salsa\ЎCubanismo!\Malembe - 1997 - Flac\05 - Now In Marianao.wav
Pre-gap length 0:00:00.04
Peak level 100.0 %
Track quality 100.0 %
Test CRC A2A7F3CD
Copy CRC A2A7F3CD
Accurately ripped (confidence 8) [3F0A31CE]
Copy OK
Track 6
Filename F:\Music\Salsa\ЎCubanismo!\Malembe - 1997 - Flac\06 - Cubanismo Llegу.wav
Pre-gap length 0:00:00.02
Peak level 89.0 %
Track quality 100.0 %
Test CRC FE63A2D0
Copy CRC FE63A2D0
Accurately ripped (confidence 9) [5B4C6EE1]
Copy OK
Track 7
Filename F:\Music\Salsa\ЎCubanismo!\Malembe - 1997 - Flac\07 - Danzуn 'Daulena'.wav
Pre-gap length 0:00:00.02
Peak level 99.9 %
Track quality 100.0 %
Test CRC 794609E6
Copy CRC 794609E6
Accurately ripped (confidence 9) [2A700628]
Copy OK
Track 8
Filename F:\Music\Salsa\ЎCubanismo!\Malembe - 1997 - Flac\08 - Mar Y Tierra.wav
Pre-gap length 0:00:00.04
Peak level 92.5 %
Track quality 100.0 %
Test CRC 829E10BF
Copy CRC 829E10BF
Accurately ripped (confidence 9) [AADD84F0]
Copy OK
Track 9
Filename F:\Music\Salsa\ЎCubanismo!\Malembe - 1997 - Flac\09 - Malembe.wav
Pre-gap length 0:00:00.04
Peak level 100.0 %
Track quality 100.0 %
Test CRC 80BB2DC0
Copy CRC 80BB2DC0
Accurately ripped (confidence 9) [4121D679]
Copy OK
All tracks accurately ripped
No errors occurred
End of status report
 
Содержание индексной карты (.CUE)
REM GENRE Latin
REM DATE 1997
REM DISCID 660D8909
REM COMMENT "ExactAudioCopy v0.99pb5"
PERFORMER "ЎCubanismo!"
TITLE "Malembe"
FILE "01 - Mulence.wav" WAVE
TRACK 01 AUDIO
TITLE "Mulence"
PERFORMER "ЎCubanismo!"
INDEX 01 00:00:00
TRACK 02 AUDIO
TITLE "Salsa Pilуn"
PERFORMER "ЎCubanismo!"
FLAGS DCP
INDEX 00 05:23:35
FILE "02 - Salsa Pilуn.wav" WAVE
INDEX 01 00:00:00
TRACK 03 AUDIO
TITLE "Montuno Alegre"
PERFORMER "ЎCubanismo!"
FLAGS DCP
INDEX 00 06:30:63
FILE "03 - Montuno Alegre.wav" WAVE
INDEX 01 00:00:00
TRACK 04 AUDIO
TITLE "El Preguntуn"
PERFORMER "ЎCubanismo!"
FLAGS DCP
INDEX 00 04:51:13
FILE "04 - El Preguntуn.wav" WAVE
INDEX 01 00:00:00
TRACK 05 AUDIO
TITLE "Now In Marianao"
PERFORMER "ЎCubanismo!"
FLAGS DCP
INDEX 00 05:24:25
FILE "05 - Now In Marianao.wav" WAVE
INDEX 01 00:00:00
TRACK 06 AUDIO
TITLE "Cubanismo Llegу"
PERFORMER "ЎCubanismo!"
FLAGS DCP
INDEX 00 06:14:00
FILE "06 - Cubanismo Llegу.wav" WAVE
INDEX 01 00:00:00
TRACK 07 AUDIO
TITLE "Danzуn 'Daulena'"
PERFORMER "ЎCubanismo!"
FLAGS DCP
INDEX 00 07:33:28
FILE "07 - Danzуn 'Daulena'.wav" WAVE
INDEX 01 00:00:00
TRACK 08 AUDIO
TITLE "Mar Y Tierra"
PERFORMER "ЎCubanismo!"
FLAGS DCP
INDEX 00 06:12:55
FILE "08 - Mar Y Tierra.wav" WAVE
INDEX 01 00:00:00
TRACK 09 AUDIO
TITLE "Malembe"
PERFORMER "ЎCubanismo!"
FLAGS DCP
INDEX 00 05:10:47
FILE "09 - Malembe.wav" WAVE
INDEX 01 00:00:00
 
1996 - ¡Cubanismo!

Релиз: Original Release / Hannibal / Rykodisc / HNCD 1390 / CD
Тип рипа: tracks+.cue
Сканы: есть
Продолжительность: 50:08
Треклист
01. Descarga De Hoy (6:20)
02. Meta Y Guaguanco (4:27)
03. Tumbao De Coqueta (4:47)
04. Aprovecha (4:50)
05. Pa'que Gozen (5:34)
06. Ni Pa'ca Ni Pa'lla (5:15)
07. Homanaje A Arcano (5:29)
08. La Rumba Y El Tumbador (4:27)
09. Cicuta Tibia (4:15)
10. Ahora Me Voy (4:43)
17:04
784
Нет комментариев. Ваш будет первым!