Поиск

(Salsa, Funk, Latin Jazz) Joe Bataan -1973- Salsoul - 2004, FLAC (tracks+.cue), lossless

Треклист:
Joe Bataan -1973- Salsoul
Жанр: Salsa, Funk, Latin Jazz
Год выпуска диска: 2004
Производитель диска: US
Аудио кодек: FLAC
Тип рипа: tracks+.cue
Битрейт аудио: lossless
Продолжительность: 42:28
Трэклист:
1. Mi Nube
2. Muchacho Ordinario
3. When Sunny Gets Blue
4. Mujer Mia
5. Fin
6. Latin Strut
7. Johnny
8. Peace, Friendship, Solidarity
9. Aftershower Funk
10. Continental Square Dance
Доп. информация: Uploaded by vdown 10 what.cd
 
eac
Exact Audio Copy V0.99 prebeta 4 from 23. January 2008
EAC extraction logfile from 21. June 2009, 13:48
Joe Bataan / Salsoul
Used drive : PIONEER DVD-RW DVR-215D Adapter: 4 ID: 0
Read mode : Secure
Utilize accurate stream : Yes
Defeat audio cache : Yes
Make use of C2 pointers : No
Read offset correction : 48
Overread into Lead-In and Lead-Out : No
Fill up missing offset samples with silence : Yes
Delete leading and trailing silent blocks : No
Null samples used in CRC calculations : Yes
Used interface : Native Win32 interface for Win NT & 2000
Gap handling : Appended to previous track
Used output format : User Defined Encoder
Selected bitrate : 768 kBit/s
Quality : High
Add ID3 tag : No
Command line compressor : C:\Program Files\Exact Audio Copy\FLAC\FLAC.EXE
Additional command line options : -8 -V -T "ARTIST=%a" -T "TITLE=%t" -T "ALBUM=%g" -T "DATE=%y" -T "TRACKNUMBER=%n" -T "GENRE=%m" -T "COMMENT=EAC FLAC -8" %s
TOC of the extracted CD
Track | Start | Length | Start sector | End sector
---------------------------------------------------------
1 | 0:00.00 | 2:49.17 | 0 | 12691
2 | 2:49.17 | 4:13.25 | 12692 | 31691
3 | 7:02.42 | 3:49.18 | 31692 | 48884
4 | 10:51.60 | 4:37.00 | 48885 | 69659
5 | 15:28.60 | 2:57.20 | 69660 | 82954
6 | 18:26.05 | 4:07.62 | 82955 | 101541
7 | 22:33.67 | 4:42.30 | 101542 | 122721
8 | 27:16.22 | 4:08.28 | 122722 | 141349
9 | 31:24.50 | 5:13.37 | 141350 | 164861
10 | 36:38.12 | 5:49.43 | 164862 | 191079
Track 1
Filename \\server\Music\Joe_Bataan-Salsoul\01 - Mi Nube.wav
Pre-gap length 0:00:02.00
Peak level 94.6 %
Track quality 100.0 %
Test CRC C6437A6A
Copy CRC C6437A6A
Accurately ripped (confidence 1) [42A320B6]
Copy OK
Track 2
Filename \\server\Music\Joe_Bataan-Salsoul\02 - Muchacho Ordinario.wav
Peak level 94.6 %
Track quality 99.9 %
Test CRC 5BD59F96
Copy CRC 5BD59F96
Accurately ripped (confidence 1) [68800E5A]
Copy OK
Track 3
Filename \\server\Music\Joe_Bataan-Salsoul\03 - When Sunny Gets Blue.wav
Pre-gap length 0:00:00.01
Peak level 94.6 %
Track quality 100.0 %
Test CRC 8DCB5593
Copy CRC 8DCB5593
Accurately ripped (confidence 1) [AE69EB05]
Copy OK
Track 4
Filename \\server\Music\Joe_Bataan-Salsoul\04 - Mujer Mia.wav
Peak level 94.6 %
Track quality 100.0 %
Test CRC B89F6006
Copy CRC B89F6006
Accurately ripped (confidence 1) [01FB525C]
Copy OK
Track 5
Filename \\server\Music\Joe_Bataan-Salsoul\05 - Fin.wav
Peak level 94.6 %
Track quality 100.0 %
Test CRC 0C648F03
Copy CRC 0C648F03
Accurately ripped (confidence 1) [9F69366E]
Copy OK
Track 6
Filename \\server\Music\Joe_Bataan-Salsoul\06 - Latin Strut.wav
Peak level 94.6 %
Track quality 100.0 %
Test CRC 478F6961
Copy CRC 478F6961
Accurately ripped (confidence 1) [0DCA8E75]
Copy OK
Track 7
Filename \\server\Music\Joe_Bataan-Salsoul\07 - Johnny.wav
Pre-gap length 0:00:00.02
Peak level 94.6 %
Track quality 100.0 %
Test CRC 5FFC9FA4
Copy CRC 5FFC9FA4
Accurately ripped (confidence 1) [73BA759D]
Copy OK
Track 8
Filename \\server\Music\Joe_Bataan-Salsoul\08 - Peace, Friendship, Solidarity.wav
Peak level 94.6 %
Track quality 99.9 %
Test CRC 39123241
Copy CRC 39123241
Accurately ripped (confidence 1) [2C052F8F]
Copy OK
Track 9
Filename \\server\Music\Joe_Bataan-Salsoul\09 - Aftershower Funk.wav
Peak level 94.6 %
Track quality 99.9 %
Test CRC 1E72DEAC
Copy CRC 1E72DEAC
Accurately ripped (confidence 1) [13029004]
Copy OK
Track 10
Filename \\server\Music\Joe_Bataan-Salsoul\10 - Continental Square Dance.wav
Peak level 94.6 %
Track quality 100.0 %
Test CRC B0A84DCD
Copy CRC B0A84DCD
Accurately ripped (confidence 1) [D1F1B6C2]
Copy OK
All tracks accurately ripped
No errors occurred
End of status report
 
cue
REM GENRE Latin
REM DATE 1973
REM DISCID 7409F30A
REM COMMENT "ExactAudioCopy v0.99pb4"
PERFORMER "Joe Bataan"
TITLE "Salsoul"
FILE "01 - Mi Nube.wav" WAVE
TRACK 01 AUDIO
TITLE "Mi Nube"
PERFORMER "Joe Bataan"
INDEX 01 00:00:00
FILE "02 - Muchacho Ordinario.wav" WAVE
TRACK 02 AUDIO
TITLE "Muchacho Ordinario"
PERFORMER "Joe Bataan"
INDEX 01 00:00:00
TRACK 03 AUDIO
TITLE "When Sunny Gets Blue"
PERFORMER "Joe Bataan"
INDEX 00 04:13:24
FILE "03 - When Sunny Gets Blue.wav" WAVE
INDEX 01 00:00:00
FILE "04 - Mujer Mia.wav" WAVE
TRACK 04 AUDIO
TITLE "Mujer Mia"
PERFORMER "Joe Bataan"
INDEX 01 00:00:00
FILE "05 - Fin.wav" WAVE
TRACK 05 AUDIO
TITLE "Fin"
PERFORMER "Joe Bataan"
INDEX 01 00:00:00
FILE "06 - Latin Strut.wav" WAVE
TRACK 06 AUDIO
TITLE "Latin Strut"
PERFORMER "Joe Bataan"
INDEX 01 00:00:00
TRACK 07 AUDIO
TITLE "Johnny"
PERFORMER "Joe Bataan"
INDEX 00 04:07:60
FILE "07 - Johnny.wav" WAVE
INDEX 01 00:00:00
FILE "08 - Peace, Friendship, Solidarity.wav" WAVE
TRACK 08 AUDIO
TITLE "Peace, Friendship, Solidarity"
PERFORMER "Joe Bataan"
INDEX 01 00:00:00
FILE "09 - Aftershower Funk.wav" WAVE
TRACK 09 AUDIO
TITLE "Aftershower Funk"
PERFORMER "Joe Bataan"
INDEX 01 00:00:00
FILE "10 - Continental Square Dance.wav" WAVE
TRACK 10 AUDIO
TITLE "Continental Square Dance"
PERFORMER "Joe Bataan"
INDEX 01 00:00:00
15:21
305
Нет комментариев. Ваш будет первым!