Поиск

(Salsa, Cuban Jazz, Latin) [CD] Cubismo - Junglesalsa - 2005, FLAC (tracks+.cue), lossless

(Salsa, Cuban Jazz, Latin) [CD] Cubismo - Junglesalsa - 2005, FLAC (tracks+.cue), lossless
Треклист:
Cubismo / Junglesalsa
Жанр: Salsa, Cuban Jazz, Latin
Носитель: CD
Страна-производитель диска (релиза): Russia
Год издания: 2005
Издатель (лейбл): White Elephant
Аудиокодек: FLAC (*.flac)
Тип рипа: tracks+.cue
Битрейт аудио: lossless
Продолжительность: 1:11:21.
Источник (релизер): clustert
Наличие сканов в содержимом раздачи: да
Треклист:
01. Iya mi ile (Diosa de los rios) [0:06:33.60]
02. Junglesalsa [0:04:34.73]
03. Bailando cha - cha - cha [0:05:13.01]
04. Las grinas [0:04:03.25]
05. Pa mi gente con fe [0:06:04.18]
06. Comparsa [0:04:08.61]
07. Morenita [0:05:23.40]
08. La magia [0:06:57.53]
09. La apariencia peligrosa [0:05:32.17]
10. Canto a eleggua (intro) [0:00:59.01]
11. Canto a eleggua [0:05:21.66]
12. Trioda [0:06:01.44]
13. Believin' [0:07:00.50]
14. Sjene [0:03:26.28]
 
Лог создания рипа
Exact Audio Copy V1.0 beta 3 from 29. August 2011
Отчёт EAC об извлечении, выполненном 23. сентября 2016, 18:42
Cubismo / Junglesalsa
Дисковод: ASUS DRW-1814BLT Adapter: 4 ID: 0
Режим чтения : Достоверность
Использование точного потока : Да
Отключение кэша аудио : Да
Использование указателей C2 : Нет
Коррекция смещения при чтении : 6
Способность читать области Lead-in и Lead-out : Нет
Заполнение пропущенных сэмплов тишиной : Да
Удаление блоков с тишиной в начале и конце : Нет
При вычислениях CRC использовались нулевые сэмплы : Да
Интерфейс : Встроенный Win32-интерфейс для Win NT/2000
Обработка зазоров : Добавлено к предыдущему треку
Выходной формат : Пользовательский кодировщик
Выбранный битрейт : 128 kBit/s
Качество : Высокий
Добавление ID3-тега : Нет
Утилита сжатия : C:\Program Files\Exact Audio Copy\Flac\flac.exe
Дополнительные параметры : -V -8 -T "Genre=%genre%" -T "Artist=%artist%" -T "Title=%title%" -T "Album=%albumtitle%" -T "Date=%year%" -T "Tracknumber=%tracknr%" -T "Comment=EAC1.0b2 FLAC -8" %source%
TOC извлечённого CD
Трек | Старт | Длительность | Начальный сектор | Конечный сектор
---------------------------------------------------------------------
1 | 0:00.00 | 6:33.60 | 0 | 29534
2 | 6:33.60 | 4:34.73 | 29535 | 50157
3 | 11:08.58 | 5:13.01 | 50158 | 73633
4 | 16:21.59 | 4:03.25 | 73634 | 91883
5 | 20:25.09 | 6:04.18 | 91884 | 119201
6 | 26:29.27 | 4:08.61 | 119202 | 137862
7 | 30:38.13 | 5:23.40 | 137863 | 162127
8 | 36:01.53 | 6:57.53 | 162128 | 193455
9 | 42:59.31 | 5:32.17 | 193456 | 218372
10 | 48:31.48 | 0:59.01 | 218373 | 222798
11 | 49:30.49 | 5:21.66 | 222799 | 246939
12 | 54:52.40 | 6:01.44 | 246940 | 274058
13 | 60:54.09 | 7:00.50 | 274059 | 305608
14 | 67:54.59 | 3:26.28 | 305609 | 321086
Трек 1
Имя файла R:\Раздача 67\Cubismo - 2004 - Juglesalsa\01 Iya mi ile (Diosa de los rios) .wav
Длина предзазора 0:00:02.00
Пиковый уровень 98.8 %
Скорость извлечения 5.3 X
Качество трека 100.0 %
CRC теста 6E7717EC
CRC копии 6E7717EC
Точность не определена (достоверность 3) [668F8DC0], AccurateRip вернул [5D3E7472] (AR v2)
Копирование... OK
Трек 2
Имя файла R:\Раздача 67\Cubismo - 2004 - Juglesalsa\02 Junglesalsa .wav
Пиковый уровень 98.8 %
Скорость извлечения 5.7 X
Качество трека 100.0 %
CRC теста 4C1E4193
CRC копии 4C1E4193
Точность не определена (достоверность 3) [4AA4C022], AccurateRip вернул [202BFE22] (AR v2)
Копирование... OK
Трек 3
Имя файла R:\Раздача 67\Cubismo - 2004 - Juglesalsa\03 Bailando cha - cha - cha .wav
Пиковый уровень 100.0 %
Скорость извлечения 6.2 X
Качество трека 100.0 %
CRC теста 42B61CDC
CRC копии 42B61CDC
Точность не определена (достоверность 3) [C2F08158], AccurateRip вернул [AEC8333B] (AR v2)
Копирование... OK
Трек 4
Имя файла R:\Раздача 67\Cubismo - 2004 - Juglesalsa\04 Las grinas .wav
Пиковый уровень 98.8 %
Скорость извлечения 4.6 X
Качество трека 99.9 %
CRC теста 9225FD39
CRC копии 9225FD39
Точность не определена (достоверность 3) [D5239A84], AccurateRip вернул [8E26D3F7] (AR v2)
Копирование... OK
Трек 5
Имя файла R:\Раздача 67\Cubismo - 2004 - Juglesalsa\05 Pa mi gente con fe .wav
Пиковый уровень 98.8 %
Скорость извлечения 5.8 X
Качество трека 100.0 %
CRC теста A6E8A0BA
CRC копии A6E8A0BA
Точность не определена (достоверность 3) [9ECBF46B], AccurateRip вернул [98BC73EF] (AR v2)
Копирование... OK
Трек 6
Имя файла R:\Раздача 67\Cubismo - 2004 - Juglesalsa\06 Comparsa .wav
Пиковый уровень 98.8 %
Скорость извлечения 5.8 X
Качество трека 100.0 %
CRC теста D9F5E245
CRC копии D9F5E245
Точность не определена (достоверность 3) [C97D6A2F], AccurateRip вернул [A49C345B] (AR v2)
Копирование... OK
Трек 7
Имя файла R:\Раздача 67\Cubismo - 2004 - Juglesalsa\07 Morenita .wav
Пиковый уровень 98.8 %
Скорость извлечения 7.8 X
Качество трека 100.0 %
CRC теста 1CE6541D
CRC копии 1CE6541D
Точность не определена (достоверность 3) [C9D16530], AccurateRip вернул [922D882C] (AR v2)
Копирование... OK
Трек 8
Имя файла R:\Раздача 67\Cubismo - 2004 - Juglesalsa\08 La magia .wav
Пиковый уровень 98.8 %
Скорость извлечения 8.4 X
Качество трека 100.0 %
CRC теста B0F6E1AD
CRC копии B0F6E1AD
Точность не определена (достоверность 3) [ED504B11], AccurateRip вернул [310C9D77] (AR v2)
Копирование... OK
Трек 9
Имя файла R:\Раздача 67\Cubismo - 2004 - Juglesalsa\09 La apariencia peligrosa .wav
Пиковый уровень 99.9 %
Скорость извлечения 8.7 X
Качество трека 100.0 %
CRC теста 96A055AE
CRC копии 96A055AE
Точность не определена (достоверность 3) [FF691906], AccurateRip вернул [EC1E7704] (AR v2)
Копирование... OK
Трек 10
Имя файла R:\Раздача 67\Cubismo - 2004 - Juglesalsa\10 Canto a eleggua (intro) .wav
Пиковый уровень 99.9 %
Скорость извлечения 5.9 X
Качество трека 100.0 %
CRC теста 2F617317
CRC копии 2F617317
Точность не определена (достоверность 3) [C41C8C48], AccurateRip вернул [140BA779] (AR v2)
Копирование... OK
Трек 11
Имя файла R:\Раздача 67\Cubismo - 2004 - Juglesalsa\11 Canto a eleggua .wav
Пиковый уровень 100.0 %
Скорость извлечения 9.0 X
Качество трека 100.0 %
CRC теста 0F02EB7B
CRC копии 0F02EB7B
Точность не определена (достоверность 3) [CA4A46C6], AccurateRip вернул [E1D27DBE] (AR v2)
Копирование... OK
Трек 12
Имя файла R:\Раздача 67\Cubismo - 2004 - Juglesalsa\12 Trioda .wav
Пиковый уровень 98.8 %
Скорость извлечения 9.4 X
Качество трека 100.0 %
CRC теста 94736969
CRC копии 94736969
Точность не определена (достоверность 3) [3C55CF56], AccurateRip вернул [776B7671] (AR v2)
Копирование... OK
Трек 13
Имя файла R:\Раздача 67\Cubismo - 2004 - Juglesalsa\13 Believin' .wav
Пиковый уровень 96.0 %
Скорость извлечения 9.8 X
Качество трека 100.0 %
CRC теста 4DC14C5D
CRC копии 4DC14C5D
Точность не определена (достоверность 3) [7E6B35D5], AccurateRip вернул [2578F7F5] (AR v2)
Копирование... OK
Трек 14
Имя файла R:\Раздача 67\Cubismo - 2004 - Juglesalsa\14 Sjene .wav
Пиковый уровень 100.0 %
Скорость извлечения 9.3 X
Качество трека 100.0 %
CRC теста EBB1DB0A
CRC копии EBB1DB0A
Точность не определена (достоверность 3) [F07D7BF6], AccurateRip вернул [F845002B] (AR v2)
Копирование... OK
Ни один трек не прошёл проверки на точность
В вашей базе может быть иной вариант штамповки диска
Ошибок не произошло
Конец отчёта
==== Контрольная сумма отчёта 6969514D68F939A6D98E19457ED2118F74AB4A51B9D612C519F407193371A107 ====
 
Содержание индексной карты (.CUE)
REM GENRE Salsa
REM DATE 2005
REM DISCID D310B90E
REM COMMENT "ExactAudioCopy v1.0b3"
PERFORMER "Cubismo"
TITLE "Junglesalsa"
FILE "01 Iya mi ile (Diosa de los rios) .wav" WAVE
TRACK 01 AUDIO
TITLE "Iya mi ile (Diosa de los rios)"
PERFORMER "Cubismo"
INDEX 01 00:00:00
FILE "02 Junglesalsa .wav" WAVE
TRACK 02 AUDIO
TITLE "Junglesalsa"
PERFORMER "Cubismo"
INDEX 01 00:00:00
FILE "03 Bailando cha - cha - cha .wav" WAVE
TRACK 03 AUDIO
TITLE "Bailando cha - cha - cha"
PERFORMER "Cubismo"
INDEX 01 00:00:00
FILE "04 Las grinas .wav" WAVE
TRACK 04 AUDIO
TITLE "Las grinas"
PERFORMER "Cubismo"
INDEX 01 00:00:00
FILE "05 Pa mi gente con fe .wav" WAVE
TRACK 05 AUDIO
TITLE "Pa mi gente con fe"
PERFORMER "Cubismo"
INDEX 01 00:00:00
FILE "06 Comparsa .wav" WAVE
TRACK 06 AUDIO
TITLE "Comparsa"
PERFORMER "Cubismo"
INDEX 01 00:00:00
FILE "07 Morenita .wav" WAVE
TRACK 07 AUDIO
TITLE "Morenita"
PERFORMER "Cubismo"
INDEX 01 00:00:00
FILE "08 La magia .wav" WAVE
TRACK 08 AUDIO
TITLE "La magia"
PERFORMER "Cubismo"
INDEX 01 00:00:00
FILE "09 La apariencia peligrosa .wav" WAVE
TRACK 09 AUDIO
TITLE "La apariencia peligrosa"
PERFORMER "Cubismo"
INDEX 01 00:00:00
FILE "10 Canto a eleggua (intro) .wav" WAVE
TRACK 10 AUDIO
TITLE "Canto a eleggua (intro)"
PERFORMER "Cubismo"
INDEX 01 00:00:00
FILE "11 Canto a eleggua .wav" WAVE
TRACK 11 AUDIO
TITLE "Canto a eleggua"
PERFORMER "Cubismo"
INDEX 01 00:00:00
FILE "12 Trioda .wav" WAVE
TRACK 12 AUDIO
TITLE "Trioda"
PERFORMER "Cubismo"
INDEX 01 00:00:00
FILE "13 Believin' .wav" WAVE
TRACK 13 AUDIO
TITLE "Believin'"
PERFORMER "Cubismo"
INDEX 01 00:00:00
FILE "14 Sjene .wav" WAVE
TRACK 14 AUDIO
TITLE "Sjene"
PERFORMER "Cubismo"
INDEX 01 00:00:00
22:08
328
Нет комментариев. Ваш будет первым!