Поиск

(Salsa, Cuban Jazz) [CD] Omara Portuondo (member of the Buena Vista Social Club) - Lágrimas (Lagrimas) Negras: Canciones y Boleros [2CD] - 2005, FLAC (image+.cue), lossless

(Salsa, Cuban Jazz) [CD] Omara Portuondo (member of the Buena Vista Social Club) - Lágrimas (Lagrimas) Negras: Canciones y Boleros [2CD] - 2005, FLAC (image+.cue), lossless
Треклист:
OMARA PORTUONDOLÁGRIMAS NEGRASCanciones y Boleros

Жанр: Salsa, Cuban Jazz | Носитель: CD | Страна-производитель диска: Spain | Год издания: 2005Издатель (лейбл): Yemayá Records | Номер по каталогу: YY9433 | Страна: CubaАудиокодек: FLAC (*.flac) | Тип рипа: image+.cue | Битрейт аудио: lossless | Продолжительность: 01:35:04Релизер: pepeillo001 | Наличие сканов: 600 dpi

 
CD1 [00:44:52]

01. Increíble (3:53)
02. Quiero Hablar Contigo (2:55)
03. Te Quería (5:20)
04. Libre de Pecado (3:57)
05. Campanitas de Cristal (3:07)
06. Nosotros (3:18)
07. Cómo es posible (3:33)
08. Vieja Luna (3:10)
09. Confidencia de Amor (3:26)
10. No Te Quejes (2:40)
11. Le Dije A Una Rosa (2:59)
12. Y Tú Qué Has Hecho (2:29)
13. La Última Noche (4:03)
 
EAC
Exact Audio Copy V1.0 beta 3 from 29. August 2011
EAC extraction logfile from 1. July 2014, 23:07
Omara Portuondo / Lagrimas negras - Canciones y boleros CD 1
Used drive : hp CDDVDW SN-208BB Adapter: 0 ID: 0
Read mode : Secure
Utilize accurate stream : Yes
Defeat audio cache : Yes
Make use of C2 pointers : No
Read offset correction : 6
Overread into Lead-In and Lead-Out : No
Fill up missing offset samples with silence : Yes
Delete leading and trailing silent blocks : No
Null samples used in CRC calculations : Yes
Used interface : Installed external ASPI interface
Used output format : Internal WAV Routines
Sample format : 44.100 Hz; 16 Bit; Stereo
TOC of the extracted CD
Track | Start | Length | Start sector | End sector
---------------------------------------------------------
1 | 0:00.00 | 3:53.11 | 0 | 17485
2 | 3:53.11 | 2:55.35 | 17486 | 30645
3 | 6:48.46 | 5:19.72 | 30646 | 54642
4 | 12:08.43 | 3:57.10 | 54643 | 72427
5 | 16:05.53 | 3:07.11 | 72428 | 86463
6 | 19:12.64 | 3:18.37 | 86464 | 101350
7 | 22:31.26 | 3:33.30 | 101351 | 117355
8 | 26:04.56 | 3:09.38 | 117356 | 131568
9 | 29:14.19 | 3:26.33 | 131569 | 147051
10 | 32:40.52 | 2:39.54 | 147052 | 159030
11 | 35:20.31 | 2:58.38 | 159031 | 172418
12 | 38:18.69 | 2:29.32 | 172419 | 183625
13 | 40:48.26 | 4:03.28 | 183626 | 201878
Range status and errors
Selected range
Filename W:\Música\Omara Portuondo - Lagrimas negras - Canciones y boleros CD 1.wav
Peak level 100.0 %
Extraction speed 3.6 X
Range quality 100.0 %
Test CRC 74029C89
Copy CRC 74029C89
Copy OK
No errors occurred
AccurateRip summary
Track 1 accurately ripped (confidence 4) [97890E8B] (AR v2)
Track 2 accurately ripped (confidence 4) [EB36E449] (AR v2)
Track 3 accurately ripped (confidence 4) [C2A32951] (AR v2)
Track 4 accurately ripped (confidence 4) [E9FC9478] (AR v2)
Track 5 accurately ripped (confidence 4) [4CE19D5C] (AR v2)
Track 6 accurately ripped (confidence 4) [332675DC] (AR v2)
Track 7 accurately ripped (confidence 4) [BC66842B] (AR v2)
Track 8 accurately ripped (confidence 4) [BE49FC12] (AR v2)
Track 9 accurately ripped (confidence 4) [FBF7F105] (AR v2)
Track 10 accurately ripped (confidence 4) [D5874E40] (AR v2)
Track 11 accurately ripped (confidence 4) [00CF3E76] (AR v2)
Track 12 accurately ripped (confidence 4) [749BAEED] (AR v2)
Track 13 accurately ripped (confidence 4) [DF4DAC92] (AR v2)
All tracks accurately ripped
End of status report
---- CUETools DB Plugin V2.1.3
[CTDB TOCID: zEwEruJYbANuG87X1SCSQkbVals-] disk not present in database, Submit result: zEwEruJYbANuG87X1SCSQkbVals- has been uploaded
==== Log checksum 2DDB61CDF74CDC27CEA4B42E9BD0B2944BB7F7CE6F770A2E8E8C1D97F5A073FA ====
 
Лог проверки качества
-----------------------
DON'T MODIFY THIS FILE
-----------------------
PERFORMER: auCDtect Task Manager, ver. 1.6.0 RC1 build 1.6.0.1
Copyright (c) 2008-2010 y-soft. All rights reserved
http://y-soft.org
ANALYZER: auCDtect: CD records authenticity detector, version 0.8.2
Copyright (c) 2004 Oleg Berngardt. All rights reserved.
Copyright (c) 2004 Alexander Djourik. All rights reserved.
FILE: Omara Portuondo - Lagrimas negras - Canciones y boleros CD 1.flac
Size: 253386800 Hash: A83DD2C2B2690F876296A055C264C96B Accuracy: -m0
Conclusion: CDDA 100%
Signature: D65014963EC2B5D3415B8291F6CAD87EF46291EB
 
CD2 [00:50:13]

01. Obertura (0:37)
02. Hasta Siempre (4:54)
03. Veinte Años (3:21)
04. Interludio (2:52)
05. Es Lo Que Me Queda Por Vivir (3:48)
06. Lágrimas Negras (4:18)
07. Y Sólo Tú y Yo (3:07)
08. Allí (2:37)
09. Vuela Pena (4:33)
10. Me Acostumbré a Estar Sin Tí (2:18)
11. Canción de un Festival (3:24)
12. Gracias a la Vida (4:35)
13. Por Qué Dudas (2:01)
14. Y Tal Vez (4:09)
15. Un Ratico Más No Importa (3:39)
 
EAC
Exact Audio Copy V1.0 beta 3 from 29. August 2011
EAC extraction logfile from 1. July 2014, 23:38
Omara Portuondo / Lagrimas negras - Canciones y boleros CD 2
Used drive : hp CDDVDW SN-208BB Adapter: 0 ID: 0
Read mode : Secure
Utilize accurate stream : Yes
Defeat audio cache : Yes
Make use of C2 pointers : No
Read offset correction : 6
Overread into Lead-In and Lead-Out : No
Fill up missing offset samples with silence : Yes
Delete leading and trailing silent blocks : No
Null samples used in CRC calculations : Yes
Used interface : Installed external ASPI interface
Used output format : Internal WAV Routines
Sample format : 44.100 Hz; 16 Bit; Stereo
TOC of the extracted CD
Track | Start | Length | Start sector | End sector
---------------------------------------------------------
1 | 0:00.00 | 0:37.21 | 0 | 2795
2 | 0:37.21 | 4:54.15 | 2796 | 24860
3 | 5:31.36 | 3:21.29 | 24861 | 39964
4 | 8:52.65 | 2:52.04 | 39965 | 52868
5 | 11:44.69 | 3:48.26 | 52869 | 69994
6 | 15:33.20 | 4:18.02 | 69995 | 89346
7 | 19:51.22 | 3:06.60 | 89347 | 103356
8 | 22:58.07 | 2:36.48 | 103357 | 115104
9 | 25:34.55 | 4:32.39 | 115105 | 135543
10 | 30:07.19 | 2:17.41 | 135544 | 145859
11 | 32:24.60 | 3:23.45 | 145860 | 161129
12 | 35:48.30 | 4:35.12 | 161130 | 181766
13 | 40:23.42 | 2:01.21 | 181767 | 190862
14 | 42:24.63 | 4:08.62 | 190863 | 209524
15 | 46:33.50 | 3:38.67 | 209525 | 225941
Range status and errors
Selected range
Filename W:\Música\Omara Portuondo - Lagrimas negras - Canciones y boleros CD 2.wav
Peak level 100.0 %
Extraction speed 3.6 X
Range quality 99.9 %
Test CRC DA9D571A
Copy CRC DA9D571A
Copy OK
No errors occurred
AccurateRip summary
Track 1 accurately ripped (confidence 4) [57AB1181] (AR v2)
Track 2 accurately ripped (confidence 3) [C83C26EA] (AR v2)
Track 3 accurately ripped (confidence 4) [87555174] (AR v2)
Track 4 accurately ripped (confidence 4) [424FA6A9] (AR v2)
Track 5 accurately ripped (confidence 3) [6E5C6B02] (AR v2)
Track 6 accurately ripped (confidence 3) [28717312] (AR v2)
Track 7 accurately ripped (confidence 3) [881D294D] (AR v2)
Track 8 accurately ripped (confidence 3) [FE1DC513] (AR v2)
Track 9 accurately ripped (confidence 3) [A15A4D53] (AR v2)
Track 10 accurately ripped (confidence 3) [FF16F75D] (AR v2)
Track 11 accurately ripped (confidence 4) [9878610E] (AR v2)
Track 12 accurately ripped (confidence 4) [E77914E1] (AR v2)
Track 13 accurately ripped (confidence 4) [B1B49234] (AR v2)
Track 14 accurately ripped (confidence 4) [C530E2F8] (AR v2)
Track 15 accurately ripped (confidence 4) [08107EF0] (AR v2)
All tracks accurately ripped
End of status report
---- CUETools DB Plugin V2.1.3
[CTDB TOCID: joFe59sZXFnInX3YzuHNmGniIIY-] disk not present in database, Submit result: joFe59sZXFnInX3YzuHNmGniIIY- has been uploaded
==== Log checksum 86EDD6BACEF62D45126B3A719C2B04921AE642A578BCE39D735FD8EF7A52114B ====
 
Лог проверки качества
-----------------------
DON'T MODIFY THIS FILE
-----------------------
PERFORMER: auCDtect Task Manager, ver. 1.6.0 RC1 build 1.6.0.1
Copyright (c) 2008-2010 y-soft. All rights reserved
http://y-soft.org
ANALYZER: auCDtect: CD records authenticity detector, version 0.8.2
Copyright (c) 2004 Oleg Berngardt. All rights reserved.
Copyright (c) 2004 Alexander Djourik. All rights reserved.
FILE: Omara Portuondo - Lagrimas negras - Canciones y boleros CD 2.flac
Size: 288162440 Hash: B6687A07C114E0C6657A8CAA90B28C27 Accuracy: -m0
Conclusion: CDDA 100%
Signature: 6F7DBA921AACF82A5E95B9873BE2EDABB2BA2A8F
 
Ознакомление
 
Доп. информация
Релиз полностью готов к воспроизведению в аудиоплеере (я ориентировался на foobar2000)При скачивании, если необходимо, переименуйте папку, в которой будет находиться альбомБольшая просьба к скачавшим поддерживать раздачу! Помогайте другим, ведь вам тоже может понадобиться помощь!Не забываем говорить "Спасибо"!Комментарии приветствуются!

По всем вопросам пишите личное сообщение пользователю M0p94ok.
15:22
422
Нет комментариев. Ваш будет первым!