Поиск

[SACD-R][OF] The Great Jazz Trio (Hank Jones, John Patitucci, Jack DeJohnette) - ‘S Wonderful - 2004 (Jazz, Hard Bop)

[SACD-R][OF] The Great Jazz Trio (Hank Jones, John Patitucci, Jack DeJohnette) - ‘S Wonderful - 2004 (Jazz, Hard Bop)
Треклист:
The Great Jazz Trio (Hank Jones, John Patitucci, Jack DeJohnette) / ‘S Wonderful
Формат записи/Источник записи: [SACD-R][OF]
Наличие водяных знаков: Нет
Год издания/переиздания диска: 2004
Жанр: Jazz, Hard Bop
Издатель (лейбл): Eighty-Eight’s
Продолжительность: 00:51:01
Наличие сканов в содержимом раздачи: Только обложка альбома
Треклист:
01. ‘S Wonderful
02. Sweet Lorraine
03. Moanin’
04. The Days of Winde and Roses
05. Take Five
06. I Surrender Dear
07. Night Train
08. Lover Come Back To Me
09. Green Sleeves
Bass – John Patitucci
Drums – Jack DeJohnette
Piano – Hank Jones
Written-By – Bobby Timmons (tracks: 3), Clifford Burwell* (tracks: 2), George Gershwin (tracks: 1), Gordon Clifford (tracks: 6), Harry Barris (tracks: 6), Henry Mancini (tracks: 4), Jimmy Forrest (tracks: 7), Johnny Mercer (tracks: 4), Lewin Simpkins* (tracks: 7), Mitchell Parish (tracks: 2), Oscar Washington (tracks: 7), Paul Desmond (tracks: 5), Sigmund Romberg (tracks: 8)
Контейнер: ISO (*.iso)
Тип рипа: image
Разрядность: 64(2,8 MHz/1 Bit)
Формат: DSD
Количество каналов: 2.0
Доп. информация: Eighty-Eight’s – VRCL-18822
Recorded At Avatar Studios, June 4 & 5, 2004
DSD Recording
Record Company – Village Records Inc.
Executive-Producer – Mikio Aoki
Mastered By – Koji "C-chan" Suzuki
Producer – Yasohachi "88" Itoh
Recorded By – David Baker
Источник (релизер): jazzyman (PS³SACD)
https://www.discogs.com/The-Great-Jazz-Trio-S-Wonderful/release/2048894
 
Лог DR
foobar2000 1.3.13 / Замер динамического диапазона (DR) 1.1.1
Дата отчёта:  2017-11-13 10:10:03
--------------------------------------------------------------------------------
Анализ:   The Great Jazz Trio / 'S Wonderful
--------------------------------------------------------------------------------
DR         Пики         RMS           Продолжительность трека
--------------------------------------------------------------------------------
DR14      -4.36 дБ   -20.50 дБ      3:59 01-'S Wonderful
DR16      -4.53 дБ   -24.73 дБ      4:37 02-Sweet Lorraine
DR15      -5.18 дБ   -22.99 дБ      6:43 03-Moanin'
DR15      -4.19 дБ   -22.55 дБ      4:45 04-The Days Of Wine And Roses
DR16      -4.40 дБ   -23.58 дБ      6:48 05-Take Five
DR16      -3.93 дБ   -24.97 дБ      5:33 06-I Surrender Dear
DR15      -4.04 дБ   -20.65 дБ      5:40 07-Night Train
DR14      -4.81 дБ   -23.04 дБ      6:32 08-Lover Come Back To Me
DR14      -6.15 дБ   -25.78 дБ      6:24 09-Green Sleeves
--------------------------------------------------------------------------------
Количество треков: 9
Реальные значения DR: DR15
Частота:   2822400 Гц / Частота PCM: 88200 Гц
Каналов:   2
Разрядность:   24
Битрейт:   5645 кбит/с
Кодек:   DSD64
================================================================================
01:56
865
Нет комментариев. Ваш будет первым!