Поиск

[SACD-R][OF] Pat Metheny - Bright Size Life (w. Jaco Pastorius) - 1975/2017 (Jazz, Fusion)

[SACD-R][OF] Pat Metheny - Bright Size Life (w. Jaco Pastorius) - 1975/2017 (Jazz, Fusion)
Треклист:
Pat Metheny
Bright Size Life (w. Jaco Pastorius)
Формат записи/Источник записи: [SACD-R][OF]
Наличие водяных знаков: Нет
Год издания/переиздания диска: 1975/2017
Жанр: Jazz, Fusion
Издатель (лейбл): ECM Japan
Продолжительность: 00:37:06
Наличие сканов в содержимом раздачи: Да (сканы)
Треклист:
1. Bright Size Life
2. Sirabhorn
3. Unity Village
4. Missouri Uncompromised
5. Midwester Nights Dream
6. Unquity Road
7. Omaha Celebration
8. Round Trip / Broadway Blues
Bass – Jaco Pastorius
Drums – Bob Moses
Guitar [6-string], Twelve-String Guitar [Electric] – Pat Metheny
Контейнер: ISO (*.iso)
Тип рипа: image
Разрядность: 64(2,8 MHz/1 Bit)
Формат: DSD
Количество каналов: 2.0
Доп. информация: Released 1976
Recorded December 1975, Ludwigsburg, Germany
Producer Manfred Eicher
Remastered By – Christoph Stickel
ECM Records ‎– PROZ-1089
ISO image and DSF files ripped direct and unretouched using an Oppo BDP-105D, Sonore ISO2DSD, and sacd_extract.
Источник (релизер): Darkivist (PS³SACD)
https://www.discogs.com/Pat-Metheny-Bright-Size-Life/release/10194551
http://www.cdjapan.co.jp/product/NEODAI-14971
 
Лог DR
foobar2000 1.3.13 / Замер динамического диапазона (DR) 1.1.1
Дата отчёта: 2017-07-25 12:00:20
--------------------------------------------------------------------------------
Анализ: Pat Metheny / Bright Size Life
--------------------------------------------------------------------------------
DR Пики RMS Продолжительность трека
--------------------------------------------------------------------------------
DR12 -0.38 дБ -14.99 дБ 4:48 01-Bright Size Life
DR11 -1.13 дБ -14.81 дБ 5:25 02-Sirabhorn
DR11 -3.75 дБ -19.23 дБ 3:38 03-Unity Village
DR11 -0.86 дБ -14.18 дБ 4:15 04-Missouri Uncompromised
DR10 -1.86 дБ -16.10 дБ 5:59 05-Midwestern Nights Dream
DR11 -1.03 дБ -13.29 дБ 3:34 06-Unquity Road
DR12 -0.44 дБ -14.51 дБ 4:18 07-Omaha Celebration
DR12 -0.63 дБ -14.99 дБ 5:01 08-Round Trip / Broadway Blues
--------------------------------------------------------------------------------
Количество треков: 8
Реальные значения DR: DR11
Частота: 2822400 Гц / Частота PCM: 88200 Гц
Каналов: 2
Разрядность: 24
Битрейт: 5645 кбит/с
Кодек: DSD64
================================================================================
 
Об альбоме (сборнике)
Bright Size Life is Pat Metheny’s debut album, released in 1976 on ECM, when Metheny was 21. The album features Jaco Pastorius on bass and Bob Moses on drums.
All Music Review
Pat Metheny’s debut studio album is a good one, a trio date that finds him already laying down the distinctively cottony, slightly withdrawn tone and asymmetrical phrasing that would serve him well through most of the swerves in direction ahead. His original material, all of it lovely, bears the bracing air of his Midwestern upbringing, with titles like “Missouri Uncompromised,” “Midwestern Nights Dream,” and “Omaha Celebration.” There is also a sole harbinger of radical matters way down the road with the inclusion of a loose-jointed treatment of Ornette Coleman’s “Round Trip/Broadway Blues,” proving that Song X did not come from totally out of the blue. Besides being Metheny’s debut, this LP also features one of the earliest recordings of Jaco Pastorius, a fully formed, well-matched contrapuntal force on electric bass, though content to leave the spotlight mostly to Metheny. Bob Moses, who like Metheny played in the Gary Burton Quintet at the time, is the drummer, and he can mix it up, too.
Приватный:
Нет (DHT включён)
Размер:
1.52 Гб (1,631,459,616 байт) » файлов: 12
Участники:
0 раздают, 0 качают (0 участников всего)
Внешние участники:
7 раздают, 2 качают (9 участников всего) [ Обновить ]
For power users only: no seeders - write to support@pro-jazz.com. Для power user: нет сидеров - пишите на support@pro-jazz.com.
20:18
242
Нет комментариев. Ваш будет первым!