Вы используете незарегистрированную версию компонента "Вкладки"!

Поиск

[SACD-R][OF] Michel Legrand - Twenty Songs of the Century - 1974/2016 (Jazz)

[SACD-R][OF] Michel Legrand - Twenty Songs of the Century - 1974/2016 (Jazz)
Треклист:
Michel Legrand / Twenty Songs of the Century
Формат записи/Источник записи: [SACD-R][OF]
Наличие водяных знаков: Нет
Год издания/переиздания диска: 1974/2016
Жанр: Jazz
Издатель (лейбл): Vocalion
Продолжительность: 01:12:17
Наличие сканов в содержимом раздачи: Да (сканы)
Треклист:
1. St. Louis Blues (Handy) 1914
2. My Man (Yvain; Willemetz; Charles; Pollock) 1920
3. Charleston (Mack; Johnson) 1923
4. Mack the Knife (Weill; Brecht; Blitzstein) 1928
5. Malagueña (Lecuona) 1928
6. Stormy Weather (Arlen; Koehler) 1933
7. Solitude (Ellington; De Lange; Mills) 1934
8. Summertime (Gershwin; Heyward) 1935
9. Begin the Beguine (Porter) 1935
10. Cheek to Cheek (Berlin) 1935
11. My Funny Valentine (Rodgers; Hart) 1937
12. Over the Rainbow (Arlen; Harburg) 1939
13. How High the Moon (Lewis; Hamilton) 1940
14. Laura (Raksin; Mercer) 1945
15. Autumn Leaves (Kosma; Prévert; Mercer) 1947
16. One Note Samba (Jobim; Mendonça; Hendricks) 1961
17. Moon River (Mancini; Mercer) 1961
18. I Will Wait for You (Legrand; Demy; Gimbel) 1964
19. Yesterday (Lennon; McCartney) 1965
20. Bridge Over Troubled Water (Simon) 1969
Контейнер: ISO (*.iso)
Тип рипа: image
Разрядность: 64(2,8 MHz/1 Bit)
Формат: DST64
Количество каналов: 2.0, 4.0
 
Лог проверки качества
foobar2000 1.3.10 / Dynamic Range Meter 1.1.1
log date: 2017-04-05 23:52:37
--------------------------------------------------------------------------------
Analyzed: Michel Legrand / Songs of the Century
--------------------------------------------------------------------------------
DR Peak RMS Duration Track
--------------------------------------------------------------------------------
DR8 -7.45 dB -27.86 dB 4:35 01-St. Louis Blues
DR8 -8.79 dB -29.90 dB 3:46 02-My Man
DR8 -7.90 dB -26.60 dB 2:13 03-Charleston
DR7 -10.47 dB -28.47 dB 2:52 04-Mack the Knife
DR7 -10.05 dB -29.06 dB 3:57 05-Malaguena
DR8 -8.29 dB -29.07 dB 3:56 06-Stormy Weather
DR8 -8.92 dB -26.52 dB 2:40 07-Solitude
DR8 -8.00 dB -28.78 dB 3:06 08-Summertime
DR7 -7.98 dB -27.35 dB 3:49 09-Begin the Beguine
DR8 -8.61 dB -26.62 dB 2:36 10-Cheek to Cheek
DR8 -7.96 dB -27.51 dB 5:05 11-My Funny Valentine
DR8 -9.77 dB -29.55 dB 3:34 12-Over the Rainbow
DR8 -9.68 dB -28.65 dB 3:03 13-How High the Moon
DR8 -8.98 dB -27.45 dB 4:24 14-Laura
DR8 -9.13 dB -30.15 dB 5:08 15-Autumn Leaves
DR8 -8.34 dB -25.09 dB 3:26 16-One Note Samba
DR7 -10.78 dB -29.54 dB 3:28 17-Moon River
DR7 -10.66 dB -27.84 dB 3:29 18-I Will Wait for You
DR7 -9.74 dB -28.46 dB 2:38 19-Yesterday
DR8 -9.61 dB -27.76 dB 3:49 20-Bridge Over Troubled Water
--------------------------------------------------------------------------------
Number of tracks: 20
Official DR value: DR8
Samplerate: 2822400 Hz / PCM Samplerate: 44100 Hz
Channels: 6
Bits per sample: 1
Bitrate: 16934 kbps
Codec: DST64
================================================================================
--------------------------------------------------------------------------------
Analyzed: Michel Legrand / Songs of the Century
--------------------------------------------------------------------------------
DR Peak RMS Duration Track
--------------------------------------------------------------------------------
DR13 -9.15 dB -26.74 dB 4:35 01-St. Louis Blues
DR12 -10.04 dB -28.09 dB 3:46 02-My Man
DR12 -8.60 dB -24.60 dB 2:13 03-Charleston
DR12 -9.71 dB -25.52 dB 2:52 04-Mack the Knife
DR12 -8.10 dB -26.23 dB 3:57 05-Malaguena
DR12 -8.24 dB -25.21 dB 3:56 06-Stormy Weather
DR12 -7.71 dB -23.22 dB 2:40 07-Solitude
DR11 -9.18 dB -25.61 dB 3:06 08-Summertime
DR11 -8.60 dB -23.86 dB 3:49 09-Begin the Beguine
DR12 -8.13 dB -23.58 dB 2:36 10-Cheek to Cheek
DR12 -8.87 dB -25.43 dB 5:05 11-My Funny Valentine
DR12 -7.98 dB -24.19 dB 3:34 12-Over the Rainbow
DR13 -8.40 dB -25.73 dB 3:03 13-How High the Moon
DR12 -8.12 dB -24.21 dB 4:24 14-Laura
DR13 -10.41 dB -28.48 dB 5:08 15-Autumn Leaves
DR13 -7.70 dB -23.24 dB 3:26 16-One Note Samba
DR10 -9.57 dB -23.93 dB 3:28 17-Moon River
DR10 -11.15 dB -26.37 dB 3:29 18-I Will Wait for You
DR11 -9.29 dB -24.06 dB 2:38 19-Yesterday
DR12 -7.56 dB -22.91 dB 3:49 20-Bridge Over Troubled Water
--------------------------------------------------------------------------------
Number of tracks: 20
Official DR value: DR12
Samplerate: 2822400 Hz / PCM Samplerate: 44100 Hz
Channels: 2
Bits per sample: 1
Bitrate: 5645 kbps
Codec: DST64
================================================================================
Источник (релизер): KingCrim
Диск можно купить тут
Any questions - support@pro-jazz.com.
Есть вопросы - support@pro-jazz.com
08:16
348
Нет комментариев. Ваш будет первым!