Вы используете незарегистрированную версию компонента "Вкладки"!

Поиск

[SACD-R][OF] Ella Fitzgerald - Like Someone In Love - 1957/2011 (Jazz, Jazz Vocal)

[SACD-R][OF] Ella Fitzgerald - Like Someone In Love - 1957/2011 (Jazz, Jazz Vocal)
Треклист:
Ella Fitzgerald / Like Someone In Love
Формат записи/Источник записи: [SACD-R][OF]
Наличие водяных знаков: Нет
Год издания/переиздания диска: 1957/2011
Жанр: Jazz, Jazz Vocal
Издатель (лейбл): Verve / Analogue Productions
Продолжительность: 00:53:56
Наличие сканов в содержимом раздачи: Только обложка альбома
Треклист:
01. There’s A Lull In My Life
02. More Than You Know
03. What Will I Tell My Heart
04. I Never Had A Chance
05. Close Your Eyes
06. We’ll Be Together Again
07. Then I’ll Be Tired Of You
08. Like Someone In Love
09. Midnight Sun
10. I thought About You
11. You’re Blase
12. Night Wind
13. What’s New
14. Hurry Home
15. How Long Has This Been Going On
Alto Saxophone – Ted Nash (2)
Arranged By, Conductor – Frank DeVol
Tenor Saxophone – Stan Getz
Контейнер: ISO (*.iso)
Тип рипа: image
Разрядность: 64(2,8 MHz/1 Bit)
Формат: DSD
Количество каналов: 2.0
Доп. информация: Analogue Productions – CVRJ6000SA
Mastered by George Marino at Sterling Sound from the Absolute Original Analog Master Tapes!
Iso was made with sacd-ripper for PS3, from the magical Mr_Wicked.
Источник (релизер): jazzyman (PS³SACD)
http://www.elusivedisc.com/Ella-Fitzgerald-Like-Someone-In-Love-Hybrid-Stereo-SAC...tinfo/APSAV6000/
 
Лог DR
foobar2000 1.3.13 / Замер динамического диапазона (DR) 1.1.1
Дата отчёта: 2018-02-15 21:28:06
--------------------------------------------------------------------------------
Анализ: Ella Fitzgerald / Like Someone In Love
--------------------------------------------------------------------------------
DR Пики RMS Продолжительность трека
--------------------------------------------------------------------------------
DR12 -5.49 дБ -20.04 дБ 3:28 01-There's A Lull In My Life
DR12 -6.09 дБ -21.12 дБ 3:18 02-More Than You Know
DR12 -5.06 дБ -20.27 дБ 3:33 03-What Will I Tell My Hear
DR12 -5.45 дБ -20.45 дБ 2:49 04-I Never Had A Chance
DR11 -6.45 дБ -20.29 дБ 2:58 05-Close Your Eyes
DR12 -7.08 дБ -21.13 дБ 3:22 06-We'll Be Togeather Again
DR12 -6.78 дБ -21.57 дБ 3:15 07-Then I'll Be Tired of You
DR11 -6.48 дБ -20.58 дБ 3:12 08-Like Someone In Love
DR11 -6.57 дБ -20.85 дБ 3:59 09-Midnight Sun
DR11 -6.32 дБ -20.39 дБ 2:57 10-I Thought About You
DR11 -6.85 дБ -20.42 дБ 4:00 11-You're Blase
DR11 -6.23 дБ -21.15 дБ 3:21 12-Night Wind
DR11 -5.13 дБ -19.84 дБ 3:08 13-What's New
DR11 -6.08 дБ -20.19 дБ 4:42 14-Hurry Home
DR13 -5.60 дБ -20.73 дБ 5:53 15-How Long Has This Been Going On
--------------------------------------------------------------------------------
Количество треков: 15
Реальные значения DR: DR12
Частота: 2822400 Гц / Частота PCM: 352800 Гц
Каналов: 2
Разрядность: 24
Битрейт: 5645 кбит/с
Кодек: DSD64
================================================================================
 
Об альбоме (сборнике)
Elusivwedisc:
Those reissues you've heard up until now – definitely still breathy, warm and rich – were made from something less than the master. Prepare to hear the veil removed.
Arranged by Frank DeVol and enlivened by what the liner notes described as the "sensitive, poignant saxophone solos of Stan Getz" on four tracks, Like Someone In Love was targeted at "people in love." But its real audience, then as now, was anyone who loves timeless songs impeccably sung. What was timeless in 1957 still is.
"I really think that the people who are willing to lay down their money for these reissues are going to get something really outstanding" - George Marino
Any questions - support@pro-jazz.com.
Есть вопросы - support@pro-jazz.com
11:01
369
Нет комментариев. Ваш будет первым!