Поиск

[SACD-R][OF] Cannonball Adderley with Milt Jackson - Things Are Getting Better - 1958/2012 (Bop, Hard Bop, Soul-Jazz)

[SACD-R][OF] Cannonball Adderley with Milt Jackson - Things Are Getting Better - 1958/2012 (Bop, Hard Bop, Soul-Jazz)
Треклист:
Cannonball Adderley with Milt Jackson / Things Are Getting Better
Формат записи/Источник записи: [SACD-R][OF]
Наличие водяных знаков: Нет
Год издания/переиздания диска: 1958/2012
Жанр: Bop, Hard Bop, Soul-Jazz
Издатель (лейбл): Riverside
Продолжительность: 00:52:07
Наличие сканов в содержимом раздачи: Только обложка альбома
Треклист:
01. Blues Oriental
02. Things Are Getting Better
03. Serves Me Right take 5
04. Serves Me Right take 4
05. Groovin’ High
06. The Sidewalks Of New York take 5
07. The Sidewalks Of New York take 4
08. Sounds For Sid
09. Just One Of Those Things
Alto Saxophone – Julian 'Cannonball' Adderley
Bass – Percy Heath
Cover [Produced And Designed By] – Harris Lewine, Ken Braren, Paul Bacon (2)
Drums – Art Blakey
Vibraphone [Vibes] – Milt Jackson
Контейнер: ISO (*.iso)
Тип рипа: image
Разрядность: 64(2,8 MHz/1 Bit)
Формат: DSD
Количество каналов: 2.0
Доп. информация: Recorded in New York; October 28, 1958.
Engineer – Jack Higgins
Producer, Liner Notes – Orrin Keepnews
Riverside RISA 1128-6 (2004)
Mastered By – Joe Tarantino
Iso was made with sacd-ripper for PS3, from the magical Mr_Wicked.
Источник (релизер): jazzyman (PS³SACD)
https://www.sa-cd.net/showreviews/2473
https://www.amazon.ca/Things-Are-Getting-Better-Adderley/dp/B0002NY88U
 
Лог DR
foobar2000 1.3.13 / Замер динамического диапазона (DR) 1.1.1
Дата отчёта: 2018-08-06 19:25:17
--------------------------------------------------------------------------------
Анализ: Cannonball Adderley with Milt Jackson / Things Are Getting Better
--------------------------------------------------------------------------------
DR Пики RMS Продолжительность трека
--------------------------------------------------------------------------------
DR15 -1.95 дБ -21.34 дБ 4:58 01-Blues Oriental
DR14 -2.08 дБ -19.58 дБ 7:10 02-Things Are Getting Better
DR15 -2.89 дБ -22.14 дБ 4:45 03-Serves Me Right (take 5)
DR16 -2.64 дБ -21.92 дБ 4:35 04-Serves Me Right (take 4)
DR14 -3.57 дБ -20.17 дБ 5:20 05-Groovin' High
DR14 -2.92 дБ -20.78 дБ 6:57 06-The Sidewalks of New York (take 5)
DR14 -4.71 дБ -20.57 дБ 5:12 07-The Sidewalks of New York (take 4)
DR13 -4.73 дБ -21.86 дБ 6:24 08-Sounds For Sid
DR13 -4.66 дБ -20.14 дБ 6:45 09-Just One Of Those Things
--------------------------------------------------------------------------------
Количество треков: 9
Реальные значения DR: DR14
Частота: 2822400 Гц / Частота PCM: 352800 Гц
Каналов: 2
Разрядность: 24
Битрейт: 5645 кбит/с
Кодек: DSD64
================================================================================
Приватный:
Нет (DHT включён)
Размер:
2.12 Гб (2,275,674,980 байт) » файлов: 4
Участники:
0 раздают, 0 качают (0 участников всего)
Внешние участники:
2 раздают, 1 качают (3 участников всего) [ Обновить ]
For power users only: no seeders - write to support@pro-jazz.com. Для power user: нет сидеров - пишите на support@pro-jazz.com.
03:10
196
Нет комментариев. Ваш будет первым!