Поиск

(Rhythm and Blues / Early R&B / Jump Blues / Soul) VA - Atlantic Rhythm and Blues 1947-1974 (Compilation - 7 CD) - 1985, FLAC (image+.cue), lossless

Треклист:
Various Artists
Atlantic Rhythm and Blues 1947-1974
(Compilation - 7 CD)
Жанр: Rhythm and Blues / Early R&B / Jump Blues / Soul
Год выпуска дисков: 1985
Производитель дисков: Germany / Atlantic Rec.
Аудио кодек: FLAC
Тип рипа: image+.cue
Битрейт аудио: lossless
Продолжительность: см. Трэклисты
Доп. информация:
Компиляция
Составлена из записей, сделанных в 40-70 годы.
Объединяет весь материал лэйбл - "Atlantic"
и музыкальный жанр - rhythm and blues.
Издание интересно тем, что наряду с хитами признанных звезд
(Ray Charles, Aretha Franklin, The Coasters, Ruth Brown и др.),
присутствуют и вещи малоизвестных исполнителей.
Цифровой ремастеринг материала с моно-
и стерео- аналоговых носителей.
Серия "Atlantic Rhythm and Blues 1947-1974" издана в двух вариантах:
- box set (8 CD);
- издание из раздельно продаваемых дисков (7 CD)
(представлено в настоящем релизе).
Этим, кстати, объясняются некорректные отчеты AccurateRip.
Во втором альбоме - полиграфические ошибки (пропущены 2 трэка, неправильные длительности).
Длительность трэков - по данным FreeDB.
Ссылку на allmusic даю только на первый диск, если кому-то будет интересно посмотреть другие - надеюсь найдут.
Рипы с родных дисков, сканы (300 dpi) - в отдельной папке.* * *
 
Трэклисты
 
Vol. 1 (1947-1952)
Tracks: 25
Total time: 73:13
01. Joe Morris / Lowe Groovin' 2:47
02. Tiny Grimes / Annie Laurie 3:02
03. Tiny Grimes / Midnight Special 2:44
04. Joe Morris / The Applejack 3:09
05. Frank Culley / Cole Slaw 2:48
06. Stick McGee / Drinkin' Wine Spo-Dee-O-Dee 3:16
07. Ruth Brown / So Long 2:40
08. Professor Longhair / Hey Little Girl 3:04
09. Professor Longhair / Mardi Gras In New Orleans 2:55
10. Harry Van Walls / Tee Nah Nah 2:36
11. Joe Morris / Anytime, Anyplace, Anywhere 3:05
12. Ruth Brown / Teardrops From My Eyes 2:53
13. The Clovers / Don't You Know I Love You 3:07
14. The Cardinals / Shouldn't I Know 3:12
15. Joe Turner / The Chill Is On 2:47
16. Joe Turner / Chains Of Love 3:25
17. The Clovers / Fool, Fool, Fool 2:34
18. The Clovers / One Mint Julep 2:23
19. The Cardinals / Wheel Of Fortune 2:52
20. Joe Turner / Sweet Sixteen 2:57
21. Ruth Brown / 5-10-15 Hours 3:13
22. The Clovers / Ting-A-Ling 3:07
23. Willis Jackson / Gator's Groove 2:38
24. Ruth Brown / Daddy Daddy 2:59
25. Ray Charles / The Midnight Hour 3:00
 
Vol. 2 (1952-1955)
Tracks: 26
Total time: 73:20
01. The Diamonds / A Beggar For Your Kisses 3:00
02. Ruth Brown / Mama, He Treats Your Daughter Mean 2:53
03. The Clovers / Good Lovin' 2:59
04. Ruth Brown / Wild Wild Young Men 2:32
05. Ray Charles / Mess Around 2:40
06. Joe Turner / Honey Hush 2:40
07. LaVern Baker / Soul On Fire 3:04
08. Clyde McPhatter & The Drifters / Money Honey 2:59
09. The Clovers / Lovey Dovey 2:43
10. Clyde McPhatter & The Drifters / Such a Night 2:30
11. Professor Longhair / Tipitina 2:38
12. Clyde McPhatter & The Drifters / White Christmas 2:39
13. Clyde McPhatter & The Drifters / Honey Love 2:26
14. Joe Turner / Shake, Rattle and Roll 2:58
15. The Chords / Sh-Boom 2:26
16. Tommy Ridgley / Jam Up 2:45
17. LaVern Baker / Tomorrow Night 3:12
18. LaVern Baker / Tweedlee Dee 3:10
19. Ray Charles / I Got a Woman 2:54
20. Ray Charles / Greenbacks 2:51
21. The Cardinals / The Door Is Still Open 3:03
22. Joe Turner / Flip Flop and Fly 2:49
23. Ray Charles / A Fool For You 3:02
24. LaVern Baker / Play It Fair 2:59
25. The Drifters / Adorable 2:43
26. The Robins / Smokey Joe's Cafe 2:45
 
Vol. 3 (1955-1958)
Tracks: 28
Total time: 71:13
01. Drifters / Ruby Baby 2:28
02. Cookies / In Paradise 2:35
03. Big Joe Turner / The Chicken And The Hawk 2:40
04. Clovers / Devil Or Angel 2:27
05. Ray Charles / Drown In My Own Tears 3:22
06. Ray Charles / Hallelujah, I Love Her So 2:36
07. LaVern Baker / Jim Dandy 2:13
08. Coasters / Down In Mexico 3:17
09. Big Joe Turner / Corrine Corinna 2:54
10. Clyde McPhatter / Treasure Of Love 2:10
11. Clovers / Love, Love, Love 2:04
12. Chuck Willis / It's Too Late 2:36
13. Ray Charles / Lonely Avenue 2:36
14. Ivory Joe Hunter / Since I Met You Baby 2:45
15. Ruth Brown / Lucky Lips 2:09
16. Clyde McPhatter / Without Love (There Is Nothing) 2:57
17. Drifters / Fools Fall In Love 2:31
18. Big Joe Turner / Midnight Special Train 2:40
19. Joe Hunter / Empty Arms 2:43
20. Chuck Willis / C.C. Rider 2:35
21. Coasters / Searchin' 2:41
22. Coasters / Young Blood 2:21
23. Bobbettes / Mr. Lee 2:14
24. Chuck Willis / Betty And Dupree 2:27
25. Chuck Willis / What Am I Livin' For? 2:27
26. Chuck Willis / Hang Up My Rock And Roll Shoes (1st. rock'n roll song in stereo) 2:20
27. Coasters / Yakety Yak 1:50
28. Clyde McPhatter / A Lover's Question 2:35
 
Vol. 4 (1958-1962)
Tracks: 25
Total time: 71:12
01. LaVern Baler / I Cried A Tear 2:39
02. Ray Charles / The Right Time 3:25
03. Coasters / Charlie Brown 2:21
04. Ray Charles / What'd I Say (Parts 1 & 2) 5:07
05. The Drifters / There Goes My Baby 2:13
06. The Coasters / Along Came Jones 3:00
07. The Coasters / Poison Ivy 2:43
08. The Drifters / Dance With Me 2:26
09. Ray Charles / Just For A Thrill 3:24
10. The Drifters / This Magic Moment 2:33
11. The Drifters / Save The Last Dance For Me 2:30
12. The Coasters / Shopping For Clothes 3:00
13. Ben E. King / Spanish Harlem 2:55
14. Ben E. King / Young Boy Blues 2:19
15. Ben E. King / Stand By Me 2:56
16. Carla Thomas / Gee Whiz 2:20
17. LaVern Baker / Saved 2:38
18. Solomon Burke / Just out Of Reach (Of My Two Empty Arms) 2:49
19. The Coasters / Little Egypt 2:52
20. Ben E. King / Amor 3:07
21. The Mar-Keys / Last Night 2:36
22. William Bell / You Don't Miss Your Water 3:02
23. Solomon Burke / Cry To Me 2:33
24. Ben E. King / Don't Play That Song (You Lied) 2:52
25. Booker T. & The MG'S / Green Onions 2:52
 
Vol. 5 (1962-1966)
Tracks: 27
Total time: 72:31
01. The Drifters / Up On The Roof 2:36
02. La Vern Baker / See See Rider 2:33
03. Ben E. King / I (Who Have Nothing) 2:31
04. Solomon Burke / If You Need Me 2:35
05. Otis Redding / These Arms Of Mine 2:33
06. Barbara Lewis / Hello Stranger 2:43
07. The Drifters / On Broadway 3:02
08. Doris Tray / Just One Look 2:31
09. Chris Kenner / Land Of 10000 Dances 2:29
10. Rufus Thomas / Walkin' The Dog 2:30
11. Esther Phillips / Release Me 3:17
12. Don Covay / Mercy, Mercy 2:25
13. The Drifters / Under The Boardwalk 2:42
14. Esther Phillips / And I Love Him 2:43
15. Joe Tex / Hold What You 've Got 3:07
16. Otis Redding / Mr. Pitiful 2:38
17. Barbara Lewis / Baby I'm Yours 2:33
18. Willie Tee / Teasin' You 2:47
19. Otis Redding / I' ve Been Loving You Too Long 3:14
20. Wilson Pickett / In The Midnight Hou 2:27
21. Don Covay / See-Saw 3:02
22. Otis Redding / Respect 2:08
23. Sam & Dave / You Don't Know Like I Know 2:39
24. Percy Sledge / When A Man Loves A Woman 2:53
25. Sam & Dave / Hold On, I'm Comin' 2:37
26. The Capitols / Cool Jerk 2:36
27. Jimmy Hughes / Neighbor, Neighbor 2:40
 
Vol. 6 (1966-1969)
Tracks: 25
Total time: 73:06
01. Wilson Pickett / Land Of 1000 Dances 2:28
02. Eddie Floyd / Knock On Wood 3:05
03. Otis Redding / Try A Little Tenderness 3:51
04. Wilson Pickett / Mustang Sally 3:07
05. Sam & Dave / When Something Is Wrong With My Baby 3:18
06. Arthur Conley / Sweet Soul Music 2:22
07. Sam & Dave / Soul Man 2:37
08. Aretha Franklin / I Never Loved A Man (The Way I Love You) 2:45
09. Aretha Franklin / Do Right Woman-Do Right Man 3:12
10. Joe Tex / Show Me 2:57
11. Wilson Pickett / Funky Broadway 2:34
12. Aretha Franklin / Respect 2:25
13. Aretha Franklin / (You Make Me Feel Like) A Natural Woman 2:43
14. Aretha Franklin / Baby I Love You 2:40
15. Joe Tex / Skinny Legs And All 3:12
16. Aretha Franklin / Chain Of Fools 2:48
17. Wilson Pickett / I'm In Love 2:30
18. King Curtis / Memphis Soul Stew 2:58
19. Otis Redding / The Dock Of The Bay 2:41
20. Archie Bell & The Drells / Tighten Up 3:10
21. Clarence Carter / Slip Away 2:32
22. Aretha Franklin / Think 2:17
23. Roberta Flack / The First Time Ever I Saw Your Face 4:21
24. R.B. Greaves / Take A Letter, Maria 2:44
25. Brook Benton / Rainy Night In Georgia 3:49
 
Vol. 7 (1969-1974)
Tracks: 18
Total time: 71:52
01. Donny Hathaway / The Ghetto 6:55
02. Tyrone Davis / Turn back the Hands of Time 2:39
03. Les McCann & Eddie Harris / Compared to what 8:42
04. Aretha Franklin / Don't play that Song (You lied) 2:59
05. King Floyd / Groove me 3:03
06. Clarence Carter / Patches 3:11
07. Beginning of the End / Funky Nassau (Part 1) 3:14
08. The Persuaders / Thin Line between Love and Hate 3:25
09. Aretha Franklin / Rock Steady 3:12
10. Roberta Flack & Donny Hathaway / You've got a Friend 3:26
11. Betty Wright / Clean up Woman 2:47
12. The Spinners / Could it be I'm falling in Love 4:11
13. Roberta Flack / Killing me softly with his Song 4:47
14. Roberta Flack & Donny Hathaway / Where is the Love? 2:43
15. The Spinners / I'll be around 3:11
16. Roberta Flack / Feel like makin' Love 2:58
17. The Spinners / Mighty Love 4:58
18. Major Harris / Love won't let me wait 5:31
 
Отчёты EAC
 
Vol. 1
Exact Audio Copy V0.99 prebeta 5 from 4. May 2009
Отчёт EAC об извлечении, выполненном 18. декабря 2009, 18:15
Atlantic Records / Atlantic Rhythm And Blues[1]1947-1952
Дисковод: PIONEER DVD-RW DVR-217F Adapter: 0 ID: 1
Режим чтения : Достоверность
Использование точного потока : Да
Отключение кэша аудио : Да
Использование указателей C2 : Нет
Коррекция смещения при чтении : 96
Способность читать области Lead-in и Lead-out : Нет
Заполнение пропущенных сэмплов тишиной : Да
Удаление блоков с тишиной в начале и конце : Нет
При вычислениях CRC использовались нулевые сэмплы : Да
Интерфейс : Установленный внешний ASPI-интерфейс
Выходной формат : Пользовательский кодировщик
Выбранный битрейт : 128 kBit/s
Качество : Высокий
Добавление ID3-тэга : Нет
Утилита сжатия : C:\Program Files\FLAC\FLAC frontend.exe
Дополнительные параметры : -8 -V %s
TOC извлечённого CD
Трек | Старт | Длительность | Начальный сектор | Конечный сектор
---------------------------------------------------------------------
1 | 0:00.47 | 2:47.45 | 47 | 12616
2 | 2:48.17 | 3:02.20 | 12617 | 26286
3 | 5:50.37 | 2:44.08 | 26287 | 38594
4 | 8:34.45 | 3:09.12 | 38595 | 52781
5 | 11:43.57 | 2:48.40 | 52782 | 65421
6 | 14:32.22 | 3:16.48 | 65422 | 80169
7 | 17:48.70 | 2:40.62 | 80170 | 92231
8 | 20:29.57 | 3:04.58 | 92232 | 106089
9 | 23:34.40 | 2:55.65 | 106090 | 119279
10 | 26:30.30 | 2:36.17 | 119280 | 130996
11 | 29:06.47 | 3:05.33 | 130997 | 144904
12 | 32:12.05 | 2:53.32 | 144905 | 157911
13 | 35:05.37 | 3:07.10 | 157912 | 171946
14 | 38:12.47 | 3:12.03 | 171947 | 186349
15 | 41:24.50 | 2:47.37 | 186350 | 198911
16 | 44:12.12 | 3:25.20 | 198912 | 214306
17 | 47:37.32 | 2:34.35 | 214307 | 225891
18 | 50:11.67 | 2:23.45 | 225892 | 236661
19 | 52:35.37 | 2:52.38 | 236662 | 249599
20 | 55:28.00 | 2:57.40 | 249600 | 262914
21 | 58:25.40 | 3:13.62 | 262915 | 277451
22 | 61:39.27 | 3:07.50 | 277452 | 291526
23 | 64:47.02 | 2:38.58 | 291527 | 303434
24 | 67:25.60 | 2:59.45 | 303435 | 316904
25 | 70:25.30 | 2:59.57 | 316905 | 330386
Характеристики диапазона извлечения и сообщения об ошибках
Выбранный диапазон
Имя файла C:\Torrent\Atlantic Rhythm and Blues 1947-1974\Vol 1\Atlantic Records - Atlantic Rhythm And Blues[1]1947-1952.wav
Пиковый уровень 86.3 %
Качество диапазона 99.9 %
CRC теста DC2F326F
CRC копии DC2F326F
Копирование... OK
Ошибок не произошло
AccurateRip: сводка
Трек 1 точность не определена (достоверность 1) [6A2E9B4C], AccurateRip вернул [8EDBB99E]
Трек 2 точность не определена (достоверность 1) [0906D12D], AccurateRip вернул [92763F34]
Трек 3 точность не определена (достоверность 1) [681A0AFA], AccurateRip вернул [76E23C60]
Трек 4 точность не определена (достоверность 1) [C8E2E780], AccurateRip вернул [7D774554]
Трек 5 точность не определена (достоверность 1) [104A8D06], AccurateRip вернул [02C93C24]
Трек 6 точность не определена (достоверность 1) [329621FD], AccurateRip вернул [690A31C1]
Трек 7 точность не определена (достоверность 1) [5A645D2A], AccurateRip вернул [5E29A849]
Трек 8 точность не определена (достоверность 1) [B45B46B5], AccurateRip вернул [A6A7274C]
Трек 9 точность не определена (достоверность 1) [A093B63E], AccurateRip вернул [43434CFD]
Трек 10 точность не определена (достоверность 1) [DE759C73], AccurateRip вернул [AA7C1A15]
Трек 11 точность не определена (достоверность 1) [33920CED], AccurateRip вернул [763666C9]
Трек 12 точность не определена (достоверность 1) [058D4172], AccurateRip вернул [739D1A85]
Трек 13 точность не определена (достоверность 1) [C2EC4D78], AccurateRip вернул [1CAAE1FD]
Трек 14 точность не определена (достоверность 1) [92171CAD], AccurateRip вернул [A79D5349]
Трек 15 точность не определена (достоверность 1) [0E139B9A], AccurateRip вернул [913B9F2D]
Трек 16 точность не определена (достоверность 1) [945E38D4], AccurateRip вернул [1417D5E3]
Трек 17 точность не определена (достоверность 1) [AA63DFFC], AccurateRip вернул [1FF6A559]
Трек 18 точность не определена (достоверность 1) [0A82E897], AccurateRip вернул [8AEAF7AA]
Трек 19 точность не определена (достоверность 1) [E793A267], AccurateRip вернул [C11E4463]
Трек 20 точность не определена (достоверность 1) [C057C775], AccurateRip вернул [5C69798D]
Трек 21 точность не определена (достоверность 1) [BB31A171], AccurateRip вернул [BC72624A]
Трек 22 точность не определена (достоверность 1) [9D42C406], AccurateRip вернул [337CDEC8]
Трек 23 точность не определена (достоверность 1) [63D4FF38], AccurateRip вернул [7DCDC52D]
Трек 24 точность не определена (достоверность 1) [B6E20BEB], AccurateRip вернул [9B33E454]
Трек 25 точность не определена (достоверность 1) [936450EA], AccurateRip вернул [480C9F13]
Ни один трек не прошёл проверки на точность
В вашей базе может быть иной вариант штамповки диска
Конец отчёта
 
Vol. 2
Exact Audio Copy V0.99 prebeta 5 from 4. May 2009
Отчёт EAC об извлечении, выполненном 18. декабря 2009, 19:22
Atlantic Rhythm & Blues 1947-1974: Volume 2 1952-1955 / Atlantic Rhythm & Blues 1947-1974: Volume 2 1952-1955
Дисковод: PIONEER DVD-RW DVR-217F Adapter: 0 ID: 1
Режим чтения : Достоверность
Использование точного потока : Да
Отключение кэша аудио : Да
Использование указателей C2 : Нет
Коррекция смещения при чтении : 96
Способность читать области Lead-in и Lead-out : Нет
Заполнение пропущенных сэмплов тишиной : Да
Удаление блоков с тишиной в начале и конце : Нет
При вычислениях CRC использовались нулевые сэмплы : Да
Интерфейс : Установленный внешний ASPI-интерфейс
Выходной формат : Пользовательский кодировщик
Выбранный битрейт : 128 kBit/s
Качество : Высокий
Добавление ID3-тэга : Нет
Утилита сжатия : C:\Program Files\FLAC\FLAC frontend.exe
Дополнительные параметры : -8 -V %s
TOC извлечённого CD
Трек | Старт | Длительность | Начальный сектор | Конечный сектор
---------------------------------------------------------------------
1 | 0:02.12 | 3:00.40 | 162 | 13701
2 | 3:02.52 | 2:53.68 | 13702 | 26744
3 | 5:56.45 | 2:59.17 | 26745 | 40186
4 | 8:55.62 | 2:32.00 | 40187 | 51586
5 | 11:27.62 | 2:40.58 | 51587 | 63644
6 | 14:08.45 | 2:40.50 | 63645 | 75694
7 | 16:49.20 | 3:04.60 | 75695 | 89554
8 | 19:54.05 | 2:59.65 | 89555 | 103044
9 | 22:53.70 | 2:43.52 | 103045 | 115321
10 | 25:37.47 | 2:30.70 | 115322 | 126641
11 | 28:08.42 | 2:38.55 | 126642 | 138546
12 | 30:47.22 | 2:39.13 | 138547 | 150484
13 | 33:26.35 | 2:26.02 | 150485 | 161436
14 | 35:52.37 | 2:58.68 | 161437 | 174854
15 | 38:51.30 | 2:26.60 | 174855 | 185864
16 | 41:18.15 | 2:45.42 | 185865 | 198281
17 | 44:03.57 | 3:12.30 | 198282 | 212711
18 | 47:16.12 | 3:10.30 | 212712 | 226991
19 | 50:26.42 | 2:54.55 | 226992 | 240096
20 | 53:21.22 | 2:51.23 | 240097 | 252944
21 | 56:12.45 | 3:03.52 | 252945 | 266721
22 | 59:16.22 | 2:49.48 | 266722 | 279444
23 | 62:05.70 | 3:02.70 | 279445 | 293164
24 | 65:08.65 | 2:59.07 | 293165 | 306596
25 | 68:07.72 | 2:43.28 | 306597 | 318849
26 | 70:51.25 | 2:44.72 | 318850 | 331221
Характеристики диапазона извлечения и сообщения об ошибках
Выбранный диапазон
Имя файла C:\Torrent\Atlantic Rhythm and Blues 1947-1974\Vol 2\Atlantic Rhythm & Blues 1947-1974 Volume 2 1952-1955 - Atlantic Rhythm & Blues 1947-1974 Volume 2 1952-1955.wav
Пиковый уровень 80.2 %
Качество диапазона 99.9 %
CRC теста 6678CB7C
CRC копии 6678CB7C
Копирование... OK
Ошибок не произошло
AccurateRip: сводка
Трек 1 точное извлечение (доверие 1) [9AED9D0C]
Трек 2 точное извлечение (доверие 1) [7BF90438]
Трек 3 точное извлечение (доверие 1) [D5CE1DA2]
Трек 4 точное извлечение (доверие 1) [3AA2E142]
Трек 5 точное извлечение (доверие 1) [5AE5A281]
Трек 6 точное извлечение (доверие 1) [EBE44C66]
Трек 7 точное извлечение (доверие 1) [7B55DB58]
Трек 8 точное извлечение (доверие 1) [AEB45B9D]
Трек 9 точное извлечение (доверие 1) [D42C9362]
Трек 10 точное извлечение (доверие 1) [E6C8DBAD]
Трек 11 точное извлечение (доверие 1) [F517F84B]
Трек 12 точное извлечение (доверие 1) [8CFF21FF]
Трек 13 точное извлечение (доверие 1) [A47E1205]
Трек 14 точность не определена (достоверность 1) [EEC07E39], AccurateRip вернул [E8175B53]
Трек 15 точное извлечение (доверие 1) [2C0F3882]
Трек 16 точное извлечение (доверие 1) [C3796465]
Трек 17 точное извлечение (доверие 1) [9B1629C6]
Трек 18 точное извлечение (доверие 1) [E38553C7]
Трек 19 точное извлечение (доверие 1) [26F8E457]
Трек 20 точное извлечение (доверие 1) [4FAB003E]
Трек 21 точное извлечение (доверие 1) [38B0C42A]
Трек 22 точное извлечение (доверие 1) [85814FBD]
Трек 23 точное извлечение (доверие 1) [16048A41]
Трек 24 точное извлечение (доверие 1) [B8E04792]
Трек 25 точность не определена (достоверность 1) [A8AA6601], AccurateRip вернул [6DAB5208]
Трек 26 точность не определена (достоверность 1) [D5B52E96], AccurateRip вернул [8D24B940]
23 трек(и) скопированы точно
3 трек(и) не удалось проверить на точность
Некоторые треки не прошли проверку на точность
Конец отчёта
 
Vol. 3
Exact Audio Copy V0.99 prebeta 5 from 4. May 2009
Отчёт EAC об извлечении, выполненном 18. декабря 2009, 20:18
Atlantic Rhythm And Blues 1947-1974 Volume 3 (1955-1958) / Atlantic Rhythm And Blues 1947-1974 Volume 3 (1955-1958)
Дисковод: PIONEER DVD-RW DVR-217F Adapter: 0 ID: 1
Режим чтения : Достоверность
Использование точного потока : Да
Отключение кэша аудио : Да
Использование указателей C2 : Нет
Коррекция смещения при чтении : 96
Способность читать области Lead-in и Lead-out : Нет
Заполнение пропущенных сэмплов тишиной : Да
Удаление блоков с тишиной в начале и конце : Нет
При вычислениях CRC использовались нулевые сэмплы : Да
Интерфейс : Установленный внешний ASPI-интерфейс
Выходной формат : Пользовательский кодировщик
Выбранный битрейт : 128 kBit/s
Качество : Высокий
Добавление ID3-тэга : Нет
Утилита сжатия : C:\Program Files\FLAC\FLAC frontend.exe
Дополнительные параметры : -8 -V %s
TOC извлечённого CD
Трек | Старт | Длительность | Начальный сектор | Конечный сектор
---------------------------------------------------------------------
1 | 0:01.15 | 2:28.22 | 90 | 11211
2 | 2:29.37 | 2:35.23 | 11212 | 22859
3 | 5:04.60 | 2:40.60 | 22860 | 34919
4 | 7:45.45 | 2:27.67 | 34920 | 46011
5 | 10:13.37 | 3:22.33 | 46012 | 61194
6 | 13:35.70 | 2:36.47 | 61195 | 72941
7 | 16:12.42 | 2:13.43 | 72942 | 82959
8 | 18:26.10 | 3:17.15 | 82960 | 97749
9 | 21:43.25 | 2:54.20 | 97750 | 110819
10 | 24:37.45 | 2:10.45 | 110820 | 120614
11 | 26:48.15 | 2:04.02 | 120615 | 129916
12 | 28:52.17 | 2:36.05 | 129917 | 141621
13 | 31:28.22 | 2:36.15 | 141622 | 153336
14 | 34:04.37 | 2:45.10 | 153337 | 165721
15 | 36:49.47 | 2:09.65 | 165722 | 175461
16 | 38:59.37 | 2:57.70 | 175462 | 188806
17 | 41:57.32 | 2:31.25 | 188807 | 200156
18 | 44:28.57 | 2:40.13 | 200157 | 212169
19 | 47:08.70 | 2:43.02 | 212170 | 224396
20 | 49:51.72 | 2:35.30 | 224397 | 236051
21 | 52:27.27 | 2:41.73 | 236052 | 248199
22 | 55:09.25 | 2:21.52 | 248200 | 258826
23 | 57:31.02 | 2:14.65 | 258827 | 268941
24 | 59:45.67 | 2:27.65 | 268942 | 280031
25 | 62:13.57 | 2:27.43 | 280032 | 291099
26 | 64:41.25 | 2:20.05 | 291100 | 301604
27 | 67:01.30 | 1:50.30 | 301605 | 309884
28 | 68:51.60 | 2:34.35 | 309885 | 321469
Характеристики диапазона извлечения и сообщения об ошибках
Выбранный диапазон
Имя файла C:\Torrent\Atlantic Rhythm and Blues 1947-1974\Vol 3\Atlantic Rhythm And Blues 1947-1974 Volume 3 (1955-1958) - Atlantic Rhythm And Blues 1947-1974 Volume 3 (1955-1958).wav
Пиковый уровень 77.2 %
Качество диапазона 99.9 %
CRC теста 6EE4FC6C
CRC копии 6EE4FC6C
Копирование... OK
Ошибок не произошло
AccurateRip: сводка
Трек 1 нет в базе данных
Трек 2 нет в базе данных
Трек 3 нет в базе данных
Трек 4 нет в базе данных
Трек 5 нет в базе данных
Трек 6 нет в базе данных
Трек 7 нет в базе данных
Трек 8 нет в базе данных
Трек 9 нет в базе данных
Трек 10 нет в базе данных
Трек 11 нет в базе данных
Трек 12 нет в базе данных
Трек 13 нет в базе данных
Трек 14 нет в базе данных
Трек 15 нет в базе данных
Трек 16 нет в базе данных
Трек 17 нет в базе данных
Трек 18 нет в базе данных
Трек 19 нет в базе данных
Трек 20 нет в базе данных
Трек 21 нет в базе данных
Трек 22 нет в базе данных
Трек 23 нет в базе данных
Трек 24 нет в базе данных
Трек 25 нет в базе данных
Трек 26 нет в базе данных
Трек 27 нет в базе данных
Трек 28 нет в базе данных
Ни одного трека нет в базе AccurateRip
Конец отчёта
 
Vol. 4
Exact Audio Copy V0.99 prebeta 5 from 4. May 2009
Отчёт EAC об извлечении, выполненном 18. декабря 2009, 21:46
Atlantic Rhythm and Blues 1947-1974 Volume 4 1958-1962 / Atlantic Rhythm and Blues 1947-1974 Volume 4 1958-1962
Дисковод: PIONEER DVD-RW DVR-217F Adapter: 0 ID: 1
Режим чтения : Достоверность
Использование точного потока : Да
Отключение кэша аудио : Да
Использование указателей C2 : Нет
Коррекция смещения при чтении : 96
Способность читать области Lead-in и Lead-out : Нет
Заполнение пропущенных сэмплов тишиной : Да
Удаление блоков с тишиной в начале и конце : Нет
При вычислениях CRC использовались нулевые сэмплы : Да
Интерфейс : Установленный внешний ASPI-интерфейс
Выходной формат : Пользовательский кодировщик
Выбранный битрейт : 128 kBit/s
Качество : Высокий
Добавление ID3-тэга : Нет
Утилита сжатия : C:\Program Files\FLAC\FLAC frontend.exe
Дополнительные параметры : -8 -V %s
TOC извлечённого CD
Трек | Старт | Длительность | Начальный сектор | Конечный сектор
---------------------------------------------------------------------
1 | 0:02.12 | 2:39.28 | 162 | 12114
2 | 2:41.40 | 3:25.07 | 12115 | 27496
3 | 6:06.47 | 2:21.28 | 27497 | 38099
4 | 8:28.00 | 5:07.40 | 38100 | 61164
5 | 13:35.40 | 2:13.15 | 61165 | 71154
6 | 15:48.55 | 3:00.02 | 71155 | 84656
7 | 18:48.57 | 2:43.15 | 84657 | 96896
8 | 21:31.72 | 2:26.15 | 96897 | 107861
9 | 23:58.12 | 3:24.65 | 107862 | 123226
10 | 27:23.02 | 2:33.05 | 123227 | 134706
11 | 29:56.07 | 2:30.03 | 134707 | 145959
12 | 32:26.10 | 3:00.50 | 145960 | 159509
13 | 35:26.60 | 2:55.72 | 159510 | 172706
14 | 38:22.57 | 2:19.45 | 172707 | 183176
15 | 40:42.27 | 2:56.50 | 183177 | 196426
16 | 43:39.02 | 2:20.58 | 196427 | 206984
17 | 45:59.60 | 2:38.65 | 206985 | 218899
18 | 48:38.50 | 2:49.37 | 218900 | 231611
19 | 51:28.12 | 2:52.48 | 231612 | 244559
20 | 54:20.60 | 3:07.15 | 244560 | 258599
21 | 57:28.00 | 2:36.17 | 258600 | 270316
22 | 60:04.17 | 3:02.20 | 270317 | 283986
23 | 63:06.37 | 2:33.55 | 283987 | 295516
24 | 65:40.17 | 2:52.10 | 295517 | 308426
25 | 68:32.27 | 2:51.60 | 308427 | 321311
Характеристики диапазона извлечения и сообщения об ошибках
Выбранный диапазон
Имя файла C:\Torrent\Atlantic Rhythm and Blues 1947-1974\Vol 4\Atlantic Rhythm and Blues 1947-1974 Volume 4 1958-1962 - Atlantic Rhythm and Blues 1947-1974 Volume 4 1958-1962.wav
Пиковый уровень 81.1 %
Качество диапазона 99.9 %
CRC теста E06E66FF
CRC копии E06E66FF
Копирование... OK
Ошибок не произошло
AccurateRip: сводка
Трек 1 нет в базе данных
Трек 2 точность не определена (достоверность 1) [53BEFF36], AccurateRip вернул [E15F026E]
Трек 3 нет в базе данных
Трек 4 нет в базе данных
Трек 5 нет в базе данных
Трек 6 нет в базе данных
Трек 7 нет в базе данных
Трек 8 нет в базе данных
Трек 9 точность не определена (достоверность 1) [EDD96215], AccurateRip вернул [E9D71200]
Трек 10 точность не определена (достоверность 1) [D9E35558], AccurateRip вернул [23E9DF98]
Трек 11 нет в базе данных
Трек 12 точность не определена (достоверность 1) [3139657F], AccurateRip вернул [3FA73C24]
Трек 13 нет в базе данных
Трек 14 точность не определена (достоверность 1) [BB10D5D5], AccurateRip вернул [11556525]
Трек 15 точность не определена (достоверность 1) [00FDCB5D], AccurateRip вернул [38EBBF65]
Трек 16 нет в базе данных
Трек 17 точность не определена (достоверность 1) [55ED5481], AccurateRip вернул [A8E98969]
Трек 18 нет в базе данных
Трек 19 нет в базе данных
Трек 20 точность не определена (достоверность 1) [6CF43DC8], AccurateRip вернул [160ED0DC]
Трек 21 точность не определена (достоверность 1) [4BF4E579], AccurateRip вернул [A948D781]
Трек 22 точность не определена (достоверность 1) [71FF6F2B], AccurateRip вернул [12673EBB]
Трек 23 точность не определена (достоверность 1) [A7363C25], AccurateRip вернул [C09B4771]
Трек 24 точность не определена (достоверность 1) [BFAA9A41], AccurateRip вернул [FB500845]
Трек 25 нет в базе данных
12 трек(и) не удалось проверить на точность
13 трек(и) не содержатся в базе AccurateRip
Ни один трек не прошёл проверки на точность
В вашей базе может быть иной вариант штамповки диска
Конец отчёта
 
Vol. 5
Exact Audio Copy V0.99 prebeta 5 from 4. May 2009
Отчёт EAC об извлечении, выполненном 18. декабря 2009, 22:11
Various / Atlantic Rhythm & Blues Vol 5 (1962-1966)
Дисковод: PIONEER DVD-RW DVR-217F Adapter: 0 ID: 1
Режим чтения : Достоверность
Использование точного потока : Да
Отключение кэша аудио : Да
Использование указателей C2 : Нет
Коррекция смещения при чтении : 96
Способность читать области Lead-in и Lead-out : Нет
Заполнение пропущенных сэмплов тишиной : Да
Удаление блоков с тишиной в начале и конце : Нет
При вычислениях CRC использовались нулевые сэмплы : Да
Интерфейс : Установленный внешний ASPI-интерфейс
Выходной формат : Пользовательский кодировщик
Выбранный битрейт : 128 kBit/s
Качество : Высокий
Добавление ID3-тэга : Нет
Утилита сжатия : C:\Program Files\FLAC\FLAC frontend.exe
Дополнительные параметры : -8 -V %s
TOC извлечённого CD
Трек | Старт | Длительность | Начальный сектор | Конечный сектор
---------------------------------------------------------------------
1 | 0:02.17 | 2:36.25 | 167 | 11891
2 | 2:38.42 | 2:33.35 | 11892 | 23401
3 | 5:12.02 | 2:31.08 | 23402 | 34734
4 | 7:43.10 | 2:35.17 | 34735 | 46376
5 | 10:18.27 | 2:33.55 | 46377 | 57906
6 | 12:52.07 | 2:43.20 | 57907 | 70151
7 | 15:35.27 | 3:02.40 | 70152 | 83841
8 | 18:37.67 | 2:31.13 | 83842 | 95179
9 | 21:09.05 | 2:29.40 | 95180 | 106394
10 | 23:38.45 | 2:30.55 | 106395 | 117699
11 | 26:09.25 | 3:17.30 | 117700 | 132504
12 | 29:26.55 | 2:25.30 | 132505 | 143409
13 | 31:52.10 | 2:42.60 | 143410 | 155619
14 | 34:34.70 | 2:43.12 | 155620 | 167856
15 | 37:18.07 | 3:07.55 | 167857 | 181936
16 | 40:25.62 | 2:38.15 | 181937 | 193801
17 | 43:04.02 | 2:33.35 | 193802 | 205311
18 | 45:37.37 | 2:47.58 | 205312 | 217894
19 | 48:25.20 | 3:14.32 | 217895 | 232476
20 | 51:39.52 | 2:27.45 | 232477 | 243546
21 | 54:07.22 | 3:02.73 | 243547 | 257269
22 | 57:10.20 | 2:08.15 | 257270 | 266884
23 | 59:18.35 | 2:39.12 | 266885 | 278821
24 | 61:57.47 | 2:53.03 | 278822 | 291799
25 | 64:50.50 | 2:37.30 | 291800 | 303604
26 | 67:28.05 | 2:36.55 | 303605 | 315359
27 | 70:04.60 | 2:39.70 | 315360 | 327354
Характеристики диапазона извлечения и сообщения об ошибках
Выбранный диапазон
Имя файла C:\Torrent\Atlantic Rhythm and Blues 1947-1974\Vol 5\Various - Atlantic Rhythm & Blues Vol 5 (1962-1966).wav
Пиковый уровень 83.2 %
Качество диапазона 100.0 %
CRC теста A770AAC9
CRC копии A770AAC9
Копирование... OK
Ошибок не произошло
AccurateRip: сводка
Трек 1 нет в базе данных
Трек 2 точное извлечение (доверие 2) [26089852]
Трек 3 точное извлечение (доверие 2) [70EFBE85]
Трек 4 точное извлечение (доверие 2) [5EEAFAA7]
Трек 5 точное извлечение (доверие 2) [863334F4]
Трек 6 нет в базе данных
Трек 7 нет в базе данных
Трек 8 точное извлечение (доверие 2) [C62447BC]
Трек 9 точное извлечение (доверие 2) [9ECC0072]
Трек 10 точное извлечение (доверие 2) [A2E525F0]
Трек 11 точное извлечение (доверие 2) [FDAB04C7]
Трек 12 точное извлечение (доверие 2) [049350D1]
Трек 13 нет в базе данных
Трек 14 точное извлечение (доверие 2) [6FFD92D4]
Трек 15 точное извлечение (доверие 2) [D94A460A]
Трек 16 точное извлечение (доверие 2) [6287DBB8]
Трек 17 точное извлечение (доверие 2) [18D37278]
Трек 18 нет в базе данных
Трек 19 нет в базе данных
Трек 20 точное извлечение (доверие 2) [197D9BA0]
Трек 21 точное извлечение (доверие 2) [BE49EF5B]
Трек 22 точное извлечение (доверие 2) [C4C82D0F]
Трек 23 нет в базе данных
Трек 24 точное извлечение (доверие 2) [7AC4D8AD]
Трек 25 точное извлечение (доверие 2) [530918B3]
Трек 26 точное извлечение (доверие 2) [CBC10B92]
Трек 27 нет в базе данных
19 трек(и) скопированы точно
8 трек(и) не содержатся в базе AccurateRip
Некоторые треки не прошли проверку на точность
Конец отчёта
 
Vol. 6
Exact Audio Copy V0.99 prebeta 5 from 4. May 2009
Отчёт EAC об извлечении, выполненном 18. декабря 2009, 22:37
Various / Atlantic Rhythm and Blues 1947-1974 - Volume 6 (1966-1969)
Дисковод: PIONEER DVD-RW DVR-217F Adapter: 0 ID: 1
Режим чтения : Достоверность
Использование точного потока : Да
Отключение кэша аудио : Да
Использование указателей C2 : Нет
Коррекция смещения при чтении : 96
Способность читать области Lead-in и Lead-out : Нет
Заполнение пропущенных сэмплов тишиной : Да
Удаление блоков с тишиной в начале и конце : Нет
При вычислениях CRC использовались нулевые сэмплы : Да
Интерфейс : Установленный внешний ASPI-интерфейс
Выходной формат : Пользовательский кодировщик
Выбранный битрейт : 128 kBit/s
Качество : Высокий
Добавление ID3-тэга : Нет
Утилита сжатия : C:\Program Files\FLAC\FLAC frontend.exe
Дополнительные параметры : -8 -V %s
TOC извлечённого CD
Трек | Старт | Длительность | Начальный сектор | Конечный сектор
---------------------------------------------------------------------
1 | 0:00.00 | 2:28.55 | 0 | 11154
2 | 2:28.55 | 3:05.02 | 11155 | 25031
3 | 5:33.57 | 3:51.33 | 25032 | 42389
4 | 9:25.15 | 3:07.65 | 42390 | 56479
5 | 12:33.05 | 3:18.00 | 56480 | 71329
6 | 15:51.05 | 2:22.72 | 71330 | 82051
7 | 18:14.02 | 2:37.45 | 82052 | 93871
8 | 20:51.47 | 2:45.03 | 93872 | 106249
9 | 23:36.50 | 3:12.65 | 106250 | 120714
10 | 26:49.40 | 2:57.20 | 120715 | 134009
11 | 29:46.60 | 2:34.50 | 134010 | 145609
12 | 32:21.35 | 2:25.20 | 145610 | 156504
13 | 34:46.55 | 2:43.25 | 156505 | 168754
14 | 37:30.05 | 2:40.57 | 168755 | 180811
15 | 40:10.62 | 3:12.28 | 180812 | 195239
16 | 43:23.15 | 2:48.10 | 195240 | 207849
17 | 46:11.25 | 2:30.55 | 207850 | 219154
18 | 48:42.05 | 2:58.37 | 219155 | 232541
19 | 51:40.42 | 2:41.40 | 232542 | 244656
20 | 54:22.07 | 3:10.35 | 244657 | 258941
21 | 57:32.42 | 2:32.23 | 258942 | 270364
22 | 60:04.65 | 2:17.55 | 270365 | 280694
23 | 62:22.45 | 4:21.42 | 280695 | 300311
24 | 66:44.12 | 2:44.15 | 300312 | 312626
25 | 69:28.27 | 3:49.70 | 312627 | 329871
Характеристики диапазона извлечения и сообщения об ошибках
Выбранный диапазон
Имя файла C:\Torrent\Atlantic Rhythm and Blues 1947-1974\Vol 6\Various - Atlantic Rhythm and Blues 1947-1974 - Volume 6 (1966-1969).wav
Пиковый уровень 96.9 %
Качество диапазона 100.0 %
CRC теста 791620E7
CRC копии 791620E7
Копирование... OK
Ошибок не произошло
AccurateRip: сводка
Трек 1 точность не определена (достоверность 1) [EBF6589A], AccurateRip вернул [C83C97F2]
Трек 2 точность не определена (достоверность 1) [F9313406], AccurateRip вернул [F5BF05AF]
Трек 3 точность не определена (достоверность 1) [CF9EB0EC], AccurateRip вернул [390DD554]
Трек 4 точность не определена (достоверность 1) [33761B98], AccurateRip вернул [137F1032]
Трек 5 точность не определена (достоверность 1) [E634F959], AccurateRip вернул [EF48A5B4]
Трек 6 точность не определена (достоверность 1) [5476966F], AccurateRip вернул [23696B43]
Трек 7 точность не определена (достоверность 1) [B1E38563], AccurateRip вернул [4B46EDCF]
Трек 8 точность не определена (достоверность 1) [46EBBE79], AccurateRip вернул [73D43A68]
Трек 9 точность не определена (достоверность 1) [3929D6A8], AccurateRip вернул [41ABE70C]
Трек 10 точность не определена (достоверность 1) [696AE8E7], AccurateRip вернул [6B585DEA]
Трек 11 точность не определена (достоверность 1) [7E515F6A], AccurateRip вернул [8573291E]
Трек 12 точность не определена (достоверность 1) [A05A549C], AccurateRip вернул [73673692]
Трек 13 точность не определена (достоверность 1) [43D9A070], AccurateRip вернул [467C912C]
Трек 14 точность не определена (достоверность 1) [B72FDCAC], AccurateRip вернул [47F6683B]
Трек 15 точность не определена (достоверность 1) [E6C8B0DE], AccurateRip вернул [3630BAB5]
Трек 16 точность не определена (достоверность 1) [BA1ED045], AccurateRip вернул [5B28FBD5]
Трек 17 точность не определена (достоверность 1) [734D8B5F], AccurateRip вернул [4B8CF3AC]
Трек 18 точность не определена (достоверность 1) [C10029D8], AccurateRip вернул [678FAC7F]
Трек 19 точность не определена (достоверность 1) [4CAF2C23], AccurateRip вернул [F9602061]
Трек 20 точность не определена (достоверность 1) [F3D6854C], AccurateRip вернул [2C70D0FF]
Трек 21 точность не определена (достоверность 1) [A50DB43E], AccurateRip вернул [A81048BD]
Трек 22 точность не определена (достоверность 1) [763F4DB3], AccurateRip вернул [26E131F9]
Трек 23 точность не определена (достоверность 1) [AC3A2AD0], AccurateRip вернул [35637D58]
Трек 24 точность не определена (достоверность 1) [37980D25], AccurateRip вернул [3C07CFC2]
Трек 25 точность не определена (достоверность 1) [C4281F83], AccurateRip вернул [9A65FB8E]
Ни один трек не прошёл проверки на точность
В вашей базе может быть иной вариант штамповки диска
Конец отчёта
 
Vol. 7
Exact Audio Copy V0.99 prebeta 5 from 4. May 2009
Отчёт EAC об извлечении, выполненном 18. декабря 2009, 23:02
Various / Atlantic Rhythm And Blues 1947-1974 Volume 7 (1969-1974) (K)
Дисковод: PIONEER DVD-RW DVR-217F Adapter: 0 ID: 1
Режим чтения : Достоверность
Использование точного потока : Да
Отключение кэша аудио : Да
Использование указателей C2 : Нет
Коррекция смещения при чтении : 96
Способность читать области Lead-in и Lead-out : Нет
Заполнение пропущенных сэмплов тишиной : Да
Удаление блоков с тишиной в начале и конце : Нет
При вычислениях CRC использовались нулевые сэмплы : Да
Интерфейс : Установленный внешний ASPI-интерфейс
Выходной формат : Пользовательский кодировщик
Выбранный битрейт : 128 kBit/s
Качество : Высокий
Добавление ID3-тэга : Нет
Утилита сжатия : C:\Program Files\FLAC\FLAC frontend.exe
Дополнительные параметры : -8 -V %s
TOC извлечённого CD
Трек | Старт | Длительность | Начальный сектор | Конечный сектор
---------------------------------------------------------------------
1 | 0:01.40 | 6:55.05 | 115 | 31244
2 | 6:56.45 | 2:39.70 | 31245 | 43239
3 | 9:36.40 | 8:42.42 | 43240 | 82431
4 | 18:19.07 | 2:59.35 | 82432 | 95891
5 | 21:18.42 | 3:03.45 | 95892 | 109661
6 | 24:22.12 | 3:11.70 | 109662 | 124056
7 | 27:34.07 | 3:14.05 | 124057 | 138611
8 | 30:48.12 | 3:25.55 | 138612 | 154041
9 | 34:13.67 | 3:12.13 | 154042 | 168454
10 | 37:26.05 | 3:26.17 | 168455 | 183921
11 | 40:52.22 | 2:47.60 | 183922 | 196506
12 | 43:40.07 | 4:11.25 | 196507 | 215356
13 | 47:51.32 | 4:47.40 | 215357 | 236921
14 | 52:38.72 | 2:43.53 | 236922 | 249199
15 | 55:22.50 | 3:11.12 | 249200 | 263536
16 | 58:33.62 | 2:58.18 | 263537 | 276904
17 | 61:32.05 | 4:58.45 | 276905 | 299299
18 | 66:30.50 | 5:32.05 | 299300 | 324204
Характеристики диапазона извлечения и сообщения об ошибках
Выбранный диапазон
Имя файла C:\Torrent\Atlantic Rhythm and Blues 1947-1974\Vol 7\Various - Atlantic Rhythm And Blues 1947-1974 Volume 7 (1969-1974) (K).wav
Пиковый уровень 93.3 %
Качество диапазона 100.0 %
CRC теста 9F2A1F89
CRC копии 9F2A1F89
Копирование... OK
Ошибок не произошло
AccurateRip: сводка
Трек 1 точное извлечение (доверие 2) [8F7E6309]
Трек 2 нет в базе данных
Трек 3 точное извлечение (доверие 1) [695DAAEC]
Трек 4 точное извлечение (доверие 1) [9163053D]
Трек 5 точное извлечение (доверие 2) [6AA52843]
Трек 6 точное извлечение (доверие 2) [3CDDFDED]
Трек 7 точное извлечение (доверие 2) [2ACBD0AF]
Трек 8 точное извлечение (доверие 1) [D9B48268]
Трек 9 точное извлечение (доверие 1) [0FFA0AD0]
Трек 10 точное извлечение (доверие 2) [31186BD0]
Трек 11 точное извлечение (доверие 2) [81499363]
Трек 12 точное извлечение (доверие 2) [FEAD2808]
Трек 13 точное извлечение (доверие 2) [FAEF398D]
Трек 14 точное извлечение (доверие 2) [576656FC]
Трек 15 точное извлечение (доверие 2) [CEF44C05]
Трек 16 точное извлечение (доверие 2) [2D0F1829]
Трек 17 точное извлечение (доверие 2) [D0946779]
Трек 18 точное извлечение (доверие 2) [877E594E]
17 трек(и) скопированы точно
1 трек(и) не содержатся в базе AccurateRip
Некоторые треки не прошли проверку на точность
Конец отчёта

Приватный:
Нет (DHT включён)
Размер:
2.59 Гб (2,783,357,838 байт) » файлов: 64
Участники:
0 раздают, 0 качают (0 участников всего)
Внешние участники:
1 раздают, 0 качают (1 участников всего) [ Обновить ]
Никого нет на раздаче - пишите личное сообщение M0p94ok
No seeders - write personal message to M0p94ok
01:55
21
Нет комментариев. Ваш будет первым!