Поиск

(Rhythm & Blues, Big Band, Soul-Jazz, Soul, Funk) [CD] Ray Charles - The Very Best Of Ray Charles, 5 × CD Box Set, Compilation - 2014, FLAC (image+.cue), lossless

(Rhythm & Blues, Big Band, Soul-Jazz, Soul, Funk) [CD] Ray Charles - The Very Best Of Ray Charles, 5 × CD Box Set, Compilation - 2014, FLAC (image+.cue), lossless
Треклист:
Ray Charles / The Very Best Of Ray Charles, 5 × CD Box Set, Compilation
Жанр: Rhythm & Blues, Big Band, Soul-Jazz, Soul, Funk
Носитель: CD
Страна-производитель диска (релиза): France
Год издания: 2014
Издатель (лейбл): Wagram Music
Номер по каталогу: 3299892
Страна исполнителя (группы): USA
Аудиокодек: FLAC (*.flac)
Тип рипа: image+.cue
Битрейт аудио: lossless
Продолжительность: 64'16 + 56'50 + 56'11 + 64'49 + 68'43
Источник (релизер): собственные рипы
Наличие сканов в содержимом раздачи: да
Discogs
 
Треклист CD1
01. What'D I Say (Part 1&2) {with The Raylettes}    5'05
02. Don't Let The Sun Catch You Cryin' 3'45
03. Georgia On My Mind 3'35
04. It Had To Lose 2'42
05. Born To Lose 3'14
06. Basin Street Blues 2'44
07. Alexander's Ragtime Band 2'52
08. It Makes No Difference Now 3'29
09. Blackjack 2'18
10. Half As Much 3'24
11. I Believe To My Soul 2'55
12. Jumpin' In The Morning 2'45
13. Lonely Avenue 2'34
14. She's On The Ball 2'30
15. This Little Girl Of Mine 2'32
16. You Be My Baby {With The Raylettes} 2'27
17. Careless Love 3'56
18. Hang Your Head In Shame 3'15
19. Hide Nor Hair 3'02
20. Precious Thing (Till The Next... Somewhere) {with Dee Dee Bridgewater} 5'02
Total Time: 64'16
 
Треклист CD2
01. Unchain My Heart     2'52
02. Bye Bye Love 2'10
03. Hallelujah, I Love He So 2'35
04. Let The Good Time Roll 2'51
05. I'm Movin On 2'15
06. My Bonnie {with The Raylettes} 2'45
07. Ruby 2'53
08. Swanee River Rock 2'14
09. The Right Time 3'27
10. You Don't Know Me 3'14
11. Frenesi 5'05
12. Hey Good Lookin' 2'11
13. Leave My Woman Alone 2'37
14. Tell Me How Do You Feel {with The Raylettes} 2'38
15. Roll With My Baby {with The Raylettes} 2'36
16. That's Enough {with The Raylettes} 2'44
17. What Kind Of Man Are You For You {with The Raylettes} 2'49
18. I Love You So Much It Hurts 3'32
19. A Fool For You 2'59
20. Yes Undeed! 2'11
Total Time: 56'50
 
Треклист CD3
01. You Are My Sunshine  2'59
02. Hit The Road Jack 1'56
03. I Got A Woman 2'52
04. Oh Lonesome Me! 2'07
05. See See Rider (See What You Have Done) 2'34
06. You Win Again 3'29
07. Your Cheating Heart 3'33
08. Heartbreaker 2'49
09. Don't Tell Me Your Troubles 2'02
10. The Spirit I Feel 4'21
11. I'll Never Stand In Your Way 2'18
12. Making Believe 2'50
13. Sittin' On The Top Of The World 2'20
14. The Sun's Gonna Shine Again 2'37
15. Someday 3'11
16. I Had A Dream 2'52
17. At The Club 2'53
18. Just A Little Lovin' 3'28
19. Who You Gonna Love 2'03
20. Talkin 'bout You 2'44
Total Time: 56'11
 
Треклист CD4
01. Take These Chains From My Heart      2'55
02. I Can't Stop Loving You 4'13
03. Come Rain Or Come Shine 3'40
04. Blue Hawaii 2'56
05. Moonlight In Vermont 3'00
06. California, Here I Come 2'08
07. Deep In The Heart I Come 2'25
08. Chattanooga Choo Choo 3'02
09. Mississippi Mud 3'22
10. Carry Me Back To Old Virginy 2'00
11. Moon Over Miami 3'18
12. Alabamy Bound 1'53
13. New York's My Home 3'02
14. Sentimental Journey 2'56
15. Hot Rod (Live At Newport) 3'43
16. Blues Waltz (Live At Newport) 6'19
17. In A Little 3'45
18. Rockouse (Part 1 & 2) {with The Raylettes} 3'53
19. Midnight 3'15
20. Worried Mind 2'52
Total Time: 64'49
 
Треклист CD5
With Quincy Jones
01. Moanin' 3'17
02. Birth Of The Blues 5'09
03. I've Got News For You 4'30
04. Mister C 4'30
05. One Mint Julep 3'04
06. Strike Up The Band 2'35
07. Let's Go 2'41
08. Sompin' Room Only 3'45
09. I'm Gonna Move to The Outskirts Of Town 3'40
With Betty Carter
10. Takes Two To Tango 3'18
11. Cocktails For Two 3'09
12. Just You, Just Me 1'54
13. Together 1'31
14. You And I 3'22
15. Alone Together 4'41
16. Ev'ry Time We Say Goodbye 4'37
17. Side By Side 2'18
18. Baby, It's Cold Outside 4'08
19. For All We Know 3'40
20. People Will Say We're In Love 2'44
Total Time: 68'43
 
Лог создания рипа CD1
Exact Audio Copy V1.0 beta 6 from 9. April 2015
Отчёт EAC об извлечении, выполненном 16. января 2018, 12:49
Ray Charles / The Very Best Of [CD1]
Дисковод: ASUS DRW-24F1ST a Adapter: 1 ID: 0
Режим чтения : Достоверность
Использование точного потока : Да
Отключение кэша аудио : Да
Использование указателей C2 : Нет
Коррекция смещения при чтении : 6
Способность читать области Lead-in и Lead-out : Нет
Заполнение пропущенных сэмплов тишиной : Да
Удаление блоков с тишиной в начале и конце : Нет
При вычислениях CRC использовались нулевые сэмплы : Да
Интерфейс : Встроенный Win32-интерфейс для Win NT/2000
Выходной формат : Пользовательский кодировщик
Выбранный битрейт : 768 kBit/s
Качество : Высокий
Добавление ID3-тега : Нет
Утилита сжатия : D:\05. Other\10. КОМПЬЮТЕР\Exact Audio Copy\FLAC\FLAC.EXE
Дополнительные параметры : -6 -V -T "ARTIST=%artist%" -T "TITLE=%title%" -T "ALBUM=%albumtitle%" -T "DATE=%year%" -T "TRACKNUMBER=%tracknr%" -T "GENRE=%genre%" -T "COMMENT=%comment%" -T "BAND=%albuminterpret%" -T "ALBUMARTIST=%albuminterpret%" -T "COMPOSER=%composer%" %haslyrics%--tag-from-file=LYRICS="%lyricsfile%"%haslyrics% -T "DISCNUMBER=%cdnumber%" -T "TOTALDISCS=%totalcds%" -T "TOTALTRACKS=%numtracks%" %hascover%--picture="%coverfile%"%hascover% %source% -o %dest%
TOC извлечённого CD
Трек | Старт | Длительность | Начальный сектор | Конечный сектор
---------------------------------------------------------------------
1 | 0:00.00 | 5:05.13 | 0 | 22887
2 | 5:05.13 | 3:45.21 | 22888 | 39783
3 | 8:50.34 | 3:35.18 | 39784 | 55926
4 | 12:25.52 | 2:42.68 | 55927 | 68144
5 | 15:08.45 | 3:14.68 | 68145 | 82762
6 | 18:23.38 | 2:44.05 | 82763 | 95067
7 | 21:07.43 | 2:52.12 | 95068 | 107979
8 | 23:59.55 | 3:29.50 | 107980 | 123704
9 | 27:29.30 | 2:18.62 | 123705 | 134116
10 | 29:48.17 | 3:24.11 | 134117 | 149427
11 | 33:12.28 | 2:55.53 | 149428 | 162605
12 | 36:08.06 | 2:45.51 | 162606 | 175031
13 | 38:53.57 | 2:34.32 | 175032 | 186613
14 | 41:28.14 | 2:30.49 | 186614 | 197912
15 | 43:58.63 | 2:32.15 | 197913 | 209327
16 | 46:31.03 | 2:27.17 | 209328 | 220369
17 | 48:58.20 | 3:56.37 | 220370 | 238106
18 | 52:54.57 | 3:15.03 | 238107 | 252734
19 | 56:09.60 | 3:02.52 | 252735 | 266436
20 | 59:12.37 | 5:02.11 | 266437 | 289097
Характеристики диапазона извлечения и сообщения об ошибках
Выбранный диапазон
Имя файла D:\Ray Charles – The Very Best Of Ray Charles\CD1\Ray Charles - The Very Best Of [CD1].wav
Пиковый уровень 100.0 %
Скорость извлечения 3.2 X
Качество диапазона 100.0 %
CRC теста CD3956EB
CRC копии CD3956EB
Копирование... OK
Ошибок не произошло
AccurateRip: сводка
Трек 1 : извлечено точно (доверие 2) [905B222E] (AR v2)
Трек 2 : извлечено точно (доверие 2) [3D814F9E] (AR v2)
Трек 3 : извлечено точно (доверие 2) [4D59361C] (AR v2)
Трек 4 : извлечено точно (доверие 2) [B20E29D5] (AR v2)
Трек 5 : извлечено точно (доверие 2) [5F54AACE] (AR v2)
Трек 6 : извлечено точно (доверие 2) [0AAFE7BE] (AR v2)
Трек 7 : извлечено точно (доверие 2) [91C76586] (AR v2)
Трек 8 : извлечено точно (доверие 2) [5B070DF0] (AR v2)
Трек 9 : извлечено точно (доверие 2) [E75151C9] (AR v2)
Трек 10 : извлечено точно (доверие 2) [AC04AE1C] (AR v2)
Трек 11 : извлечено точно (доверие 2) [A214274C] (AR v2)
Трек 12 : извлечено точно (доверие 2) [9C7A6B8D] (AR v2)
Трек 13 : извлечено точно (доверие 2) [B77AAE75] (AR v2)
Трек 14 : извлечено точно (доверие 2) [F22BFFA6] (AR v2)
Трек 15 : извлечено точно (доверие 2) [8247B52D] (AR v2)
Трек 16 : извлечено точно (доверие 2) [C0EA3BD4] (AR v2)
Трек 17 : извлечено точно (доверие 2) [595C0156] (AR v2)
Трек 18 : извлечено точно (доверие 2) [1B6F7EA5] (AR v2)
Трек 19 : извлечено точно (доверие 2) [EFC9C69F] (AR v2)
Трек 20 : извлечено точно (доверие 2) [2CE20149] (AR v2)
Все треки извлечены точно
Конец отчёта
==== Контрольная сумма отчёта 734C09614FD1D2547C9C8A5C770C77018F21CDA9EFBD2DB1502FF758558D5529 ====
 
Лог создания рипа CD2
Exact Audio Copy V1.0 beta 6 from 9. April 2015
Отчёт EAC об извлечении, выполненном 16. января 2018, 14:28
Ray Charles / The Very Best Of [CD2]
Дисковод: ASUS DRW-24F1ST a Adapter: 1 ID: 0
Режим чтения : Достоверность
Использование точного потока : Да
Отключение кэша аудио : Да
Использование указателей C2 : Нет
Коррекция смещения при чтении : 6
Способность читать области Lead-in и Lead-out : Нет
Заполнение пропущенных сэмплов тишиной : Да
Удаление блоков с тишиной в начале и конце : Нет
При вычислениях CRC использовались нулевые сэмплы : Да
Интерфейс : Встроенный Win32-интерфейс для Win NT/2000
Выходной формат : Пользовательский кодировщик
Выбранный битрейт : 768 kBit/s
Качество : Высокий
Добавление ID3-тега : Нет
Утилита сжатия : D:\05. Other\10. КОМПЬЮТЕР\Exact Audio Copy\FLAC\FLAC.EXE
Дополнительные параметры : -6 -V -T "ARTIST=%artist%" -T "TITLE=%title%" -T "ALBUM=%albumtitle%" -T "DATE=%year%" -T "TRACKNUMBER=%tracknr%" -T "GENRE=%genre%" -T "COMMENT=%comment%" -T "BAND=%albuminterpret%" -T "ALBUMARTIST=%albuminterpret%" -T "COMPOSER=%composer%" %haslyrics%--tag-from-file=LYRICS="%lyricsfile%"%haslyrics% -T "DISCNUMBER=%cdnumber%" -T "TOTALDISCS=%totalcds%" -T "TOTALTRACKS=%numtracks%" %hascover%--picture="%coverfile%"%hascover% %source% -o %dest%
TOC извлечённого CD
Трек | Старт | Длительность | Начальный сектор | Конечный сектор
---------------------------------------------------------------------
1 | 0:00.00 | 2:52.34 | 0 | 12933
2 | 2:52.34 | 2:10.11 | 12934 | 22694
3 | 5:02.45 | 2:35.01 | 22695 | 34320
4 | 7:37.46 | 2:51.65 | 34321 | 47210
5 | 10:29.36 | 2:15.07 | 47211 | 57342
6 | 12:44.43 | 2:45.31 | 57343 | 69748
7 | 15:29.74 | 2:53.01 | 69749 | 82724
8 | 18:23.00 | 2:14.53 | 82725 | 92827
9 | 20:37.53 | 3:27.16 | 92828 | 108368
10 | 24:04.69 | 3:14.56 | 108369 | 122974
11 | 27:19.50 | 5:05.07 | 122975 | 145856
12 | 32:24.57 | 2:11.65 | 145857 | 155746
13 | 34:36.47 | 2:37.70 | 155747 | 167591
14 | 37:14.42 | 2:38.57 | 167592 | 179498
15 | 39:53.24 | 2:36.61 | 179499 | 191259
16 | 42:30.10 | 2:44.62 | 191260 | 203621
17 | 45:14.72 | 2:49.13 | 203622 | 216309
18 | 48:04.10 | 3:32.52 | 216310 | 232261
19 | 51:36.62 | 2:59.63 | 232262 | 245749
20 | 54:36.50 | 2:11.71 | 245750 | 255645
Характеристики диапазона извлечения и сообщения об ошибках
Выбранный диапазон
Имя файла D:\Ray Charles – The Very Best Of Ray Charles\CD2\Ray Charles - The Very Best Of [CD2].wav
Пиковый уровень 100.0 %
Скорость извлечения 3.0 X
Качество диапазона 99.9 %
CRC теста 99546835
CRC копии 99546835
Копирование... OK
Ошибок не произошло
AccurateRip: сводка
Трек 1 : извлечено точно (доверие 2) [630E06B7] (AR v2)
Трек 2 : извлечено точно (доверие 2) [1DF5ACBA] (AR v2)
Трек 3 : извлечено точно (доверие 2) [9E0F70C8] (AR v2)
Трек 4 : извлечено точно (доверие 2) [C5055F91] (AR v2)
Трек 5 : извлечено точно (доверие 2) [1EEC56BD] (AR v2)
Трек 6 : извлечено точно (доверие 2) [F3DBF11C] (AR v2)
Трек 7 : извлечено точно (доверие 2) [111C77A3] (AR v2)
Трек 8 : извлечено точно (доверие 2) [D602B736] (AR v2)
Трек 9 : извлечено точно (доверие 2) [0ED09DBC] (AR v2)
Трек 10 : извлечено точно (доверие 2) [5142784F] (AR v2)
Трек 11 : извлечено точно (доверие 2) [D26A7605] (AR v2)
Трек 12 : извлечено точно (доверие 2) [12D62BBB] (AR v2)
Трек 13 : извлечено точно (доверие 2) [63346C91] (AR v2)
Трек 14 : извлечено точно (доверие 2) [4AB1A702] (AR v2)
Трек 15 : извлечено точно (доверие 2) [534FCFA3] (AR v2)
Трек 16 : извлечено точно (доверие 2) [84CD6E77] (AR v2)
Трек 17 : извлечено точно (доверие 2) [52DC2BE8] (AR v2)
Трек 18 : извлечено точно (доверие 2) [A0A5814E] (AR v2)
Трек 19 : извлечено точно (доверие 2) [FFF29AC2] (AR v2)
Трек 20 : извлечено точно (доверие 2) [DC8D2471] (AR v2)
Все треки извлечены точно
Конец отчёта
==== Контрольная сумма отчёта 8137A238757E0EAC6EFCC0B314ECCA5CAD98E00E0816D63EA1B7D07539AC662F ====
 
Лог создания рипа CD3
Exact Audio Copy V1.0 beta 6 from 9. April 2015
Отчёт EAC об извлечении, выполненном 16. января 2018, 15:13
Ray Charles / The Very Best Of [CD3]
Дисковод: ASUS DRW-24F1ST a Adapter: 1 ID: 0
Режим чтения : Достоверность
Использование точного потока : Да
Отключение кэша аудио : Да
Использование указателей C2 : Нет
Коррекция смещения при чтении : 6
Способность читать области Lead-in и Lead-out : Нет
Заполнение пропущенных сэмплов тишиной : Да
Удаление блоков с тишиной в начале и конце : Нет
При вычислениях CRC использовались нулевые сэмплы : Да
Интерфейс : Встроенный Win32-интерфейс для Win NT/2000
Выходной формат : Пользовательский кодировщик
Выбранный битрейт : 768 kBit/s
Качество : Высокий
Добавление ID3-тега : Нет
Утилита сжатия : D:\05. Other\10. КОМПЬЮТЕР\Exact Audio Copy\FLAC\FLAC.EXE
Дополнительные параметры : -6 -V -T "ARTIST=%artist%" -T "TITLE=%title%" -T "ALBUM=%albumtitle%" -T "DATE=%year%" -T "TRACKNUMBER=%tracknr%" -T "GENRE=%genre%" -T "COMMENT=%comment%" -T "BAND=%albuminterpret%" -T "ALBUMARTIST=%albuminterpret%" -T "COMPOSER=%composer%" %haslyrics%--tag-from-file=LYRICS="%lyricsfile%"%haslyrics% -T "DISCNUMBER=%cdnumber%" -T "TOTALDISCS=%totalcds%" -T "TOTALTRACKS=%numtracks%" %hascover%--picture="%coverfile%"%hascover% %source% -o %dest%
TOC извлечённого CD
Трек | Старт | Длительность | Начальный сектор | Конечный сектор
---------------------------------------------------------------------
1 | 0:00.00 | 2:59.41 | 0 | 13465
2 | 2:59.41 | 1:56.02 | 13466 | 22167
3 | 4:55.43 | 2:52.72 | 22168 | 35139
4 | 7:48.40 | 2:07.72 | 35140 | 44736
5 | 9:56.37 | 2:34.23 | 44737 | 56309
6 | 12:30.60 | 3:29.37 | 56310 | 72021
7 | 16:00.22 | 3:33.47 | 72022 | 88043
8 | 19:33.69 | 2:49.48 | 88044 | 100766
9 | 22:23.42 | 2:02.47 | 100767 | 109963
10 | 24:26.14 | 4:21.57 | 109964 | 129595
11 | 28:47.71 | 2:18.06 | 129596 | 139951
12 | 31:06.02 | 2:50.59 | 139952 | 152760
13 | 33:56.61 | 2:20.72 | 152761 | 163332
14 | 36:17.58 | 2:37.54 | 163333 | 175161
15 | 38:55.37 | 3:11.19 | 175162 | 189505
16 | 42:06.56 | 2:52.20 | 189506 | 202425
17 | 44:59.01 | 2:53.46 | 202426 | 215446
18 | 47:52.47 | 3:28.71 | 215447 | 231117
19 | 51:21.43 | 2:03.07 | 231118 | 240349
20 | 53:24.50 | 2:44.27 | 240350 | 252676
Характеристики диапазона извлечения и сообщения об ошибках
Выбранный диапазон
Имя файла D:\Ray Charles – The Very Best Of Ray Charles\CD3\Ray Charles - The Very Best Of [CD3].wav
Пиковый уровень 100.0 %
Скорость извлечения 3.0 X
Качество диапазона 100.0 %
CRC теста 1229F398
CRC копии 1229F398
Копирование... OK
Ошибок не произошло
AccurateRip: сводка
Трек 1 : извлечено точно (доверие 2) [1AC17B43] (AR v2)
Трек 2 : извлечено точно (доверие 2) [3B9062BB] (AR v2)
Трек 3 : извлечено точно (доверие 2) [DFF1EEFA] (AR v2)
Трек 4 : извлечено точно (доверие 2) [42224596] (AR v2)
Трек 5 : извлечено точно (доверие 2) [87F55A81] (AR v2)
Трек 6 : извлечено точно (доверие 2) [577D3CC3] (AR v2)
Трек 7 : извлечено точно (доверие 2) [A9B890F7] (AR v2)
Трек 8 : извлечено точно (доверие 2) [F3E3C5F8] (AR v2)
Трек 9 : извлечено точно (доверие 2) [C8D35A05] (AR v2)
Трек 10 : извлечено точно (доверие 2) [FF38BF02] (AR v2)
Трек 11 : извлечено точно (доверие 2) [5207022A] (AR v2)
Трек 12 : извлечено точно (доверие 2) [7D4FED3C] (AR v2)
Трек 13 : извлечено точно (доверие 2) [6D8B5FAD] (AR v2)
Трек 14 : извлечено точно (доверие 2) [685EB47D] (AR v2)
Трек 15 : извлечено точно (доверие 2) [16815BD0] (AR v2)
Трек 16 : извлечено точно (доверие 2) [ACFAD916] (AR v2)
Трек 17 : извлечено точно (доверие 2) [E8B224B6] (AR v2)
Трек 18 : извлечено точно (доверие 2) [C26B2920] (AR v2)
Трек 19 : извлечено точно (доверие 2) [46F2C1AA] (AR v2)
Трек 20 : извлечено точно (доверие 2) [CECF321D] (AR v2)
Все треки извлечены точно
Конец отчёта
==== Контрольная сумма отчёта 833096FCB0A447D90BE134E9243336FA54094A8621E26D660520CC9E332C61A5 ====
 
Лог создания рипа CD4
Exact Audio Copy V1.0 beta 6 from 9. April 2015
Отчёт EAC об извлечении, выполненном 16. января 2018, 16:03
Ray Charles / The Very Best Of [CD4]
Дисковод: ASUS DRW-24F1ST a Adapter: 1 ID: 0
Режим чтения : Достоверность
Использование точного потока : Да
Отключение кэша аудио : Да
Использование указателей C2 : Нет
Коррекция смещения при чтении : 6
Способность читать области Lead-in и Lead-out : Нет
Заполнение пропущенных сэмплов тишиной : Да
Удаление блоков с тишиной в начале и конце : Нет
При вычислениях CRC использовались нулевые сэмплы : Да
Интерфейс : Встроенный Win32-интерфейс для Win NT/2000
Выходной формат : Пользовательский кодировщик
Выбранный битрейт : 768 kBit/s
Качество : Высокий
Добавление ID3-тега : Нет
Утилита сжатия : D:\05. Other\10. КОМПЬЮТЕР\Exact Audio Copy\FLAC\FLAC.EXE
Дополнительные параметры : -6 -V -T "ARTIST=%artist%" -T "TITLE=%title%" -T "ALBUM=%albumtitle%" -T "DATE=%year%" -T "TRACKNUMBER=%tracknr%" -T "GENRE=%genre%" -T "COMMENT=%comment%" -T "BAND=%albuminterpret%" -T "ALBUMARTIST=%albuminterpret%" -T "COMPOSER=%composer%" %haslyrics%--tag-from-file=LYRICS="%lyricsfile%"%haslyrics% -T "DISCNUMBER=%cdnumber%" -T "TOTALDISCS=%totalcds%" -T "TOTALTRACKS=%numtracks%" %hascover%--picture="%coverfile%"%hascover% %source% -o %dest%
TOC извлечённого CD
Трек | Старт | Длительность | Начальный сектор | Конечный сектор
---------------------------------------------------------------------
1 | 0:00.00 | 2:55.72 | 0 | 13196
2 | 2:55.72 | 4:13.21 | 13197 | 32192
3 | 7:09.18 | 3:40.51 | 32193 | 48743
4 | 10:49.69 | 2:56.53 | 48744 | 61996
5 | 13:46.47 | 3:00.22 | 61997 | 75518
6 | 16:46.69 | 2:08.38 | 75519 | 85156
7 | 18:55.32 | 2:25.40 | 85157 | 96071
8 | 21:20.72 | 3:02.16 | 96072 | 109737
9 | 24:23.13 | 3:22.67 | 109738 | 124954
10 | 27:46.05 | 2:00.37 | 124955 | 133991
11 | 29:46.42 | 3:18.52 | 133992 | 148893
12 | 33:05.19 | 1:53.20 | 148894 | 157388
13 | 34:58.39 | 3:02.64 | 157389 | 171102
14 | 38:01.28 | 2:56.07 | 171103 | 184309
15 | 40:57.35 | 3:43.52 | 184310 | 201086
16 | 44:41.12 | 6:19.03 | 201087 | 229514
17 | 51:00.15 | 3:45.63 | 229515 | 246452
18 | 54:46.03 | 3:53.06 | 246453 | 263933
19 | 58:39.09 | 3:15.52 | 263934 | 278610
20 | 61:54.61 | 2:52.51 | 278611 | 291561
Характеристики диапазона извлечения и сообщения об ошибках
Выбранный диапазон
Имя файла D:\Ray Charles – The Very Best Of Ray Charles\CD4\Ray Charles - The Very Best Of [CD4].wav
Пиковый уровень 100.0 %
Скорость извлечения 3.2 X
Качество диапазона 100.0 %
CRC теста 6232BDC0
CRC копии 6232BDC0
Копирование... OK
Ошибок не произошло
AccurateRip: сводка
Трек 1 : извлечено точно (доверие 2) [60B3927F] (AR v2)
Трек 2 : извлечено точно (доверие 2) [42691198] (AR v2)
Трек 3 : извлечено точно (доверие 2) [C34DBD37] (AR v2)
Трек 4 : извлечено точно (доверие 2) [C6627AA7] (AR v2)
Трек 5 : извлечено точно (доверие 2) [9715EFEB] (AR v2)
Трек 6 : извлечено точно (доверие 2) [7B7DA858] (AR v2)
Трек 7 : извлечено точно (доверие 2) [CE69D2AF] (AR v2)
Трек 8 : извлечено точно (доверие 2) [FBBFEF79] (AR v2)
Трек 9 : извлечено точно (доверие 2) [09DD35F7] (AR v2)
Трек 10 : извлечено точно (доверие 2) [3C56A41E] (AR v2)
Трек 11 : извлечено точно (доверие 2) [A36FF886] (AR v2)
Трек 12 : извлечено точно (доверие 2) [2AE03411] (AR v2)
Трек 13 : извлечено точно (доверие 2) [E832380D] (AR v2)
Трек 14 : извлечено точно (доверие 2) [BCB8AA5F] (AR v2)
Трек 15 : извлечено точно (доверие 2) [47A70809] (AR v2)
Трек 16 : извлечено точно (доверие 2) [9403AAE2] (AR v2)
Трек 17 : извлечено точно (доверие 2) [D917013E] (AR v2)
Трек 18 : извлечено точно (доверие 2) [9D3A42EB] (AR v2)
Трек 19 : извлечено точно (доверие 2) [C6103940] (AR v2)
Трек 20 : извлечено точно (доверие 2) [81C14D70] (AR v2)
Все треки извлечены точно
Конец отчёта
==== Контрольная сумма отчёта B5EA598964794D430E48114256DAD5C0EAEB6EF715BAF350F679553DAC24DA22 ====
 
Лог создания рипа CD5
Exact Audio Copy V1.0 beta 6 from 9. April 2015
Отчёт EAC об извлечении, выполненном 16. января 2018, 16:46
Ray Charles / The Very Best Of [CD5]
Дисковод: ASUS DRW-24F1ST a Adapter: 1 ID: 0
Режим чтения : Достоверность
Использование точного потока : Да
Отключение кэша аудио : Да
Использование указателей C2 : Нет
Коррекция смещения при чтении : 6
Способность читать области Lead-in и Lead-out : Нет
Заполнение пропущенных сэмплов тишиной : Да
Удаление блоков с тишиной в начале и конце : Нет
При вычислениях CRC использовались нулевые сэмплы : Да
Интерфейс : Встроенный Win32-интерфейс для Win NT/2000
Выходной формат : Пользовательский кодировщик
Выбранный битрейт : 768 kBit/s
Качество : Высокий
Добавление ID3-тега : Нет
Утилита сжатия : D:\05. Other\10. КОМПЬЮТЕР\Exact Audio Copy\FLAC\FLAC.EXE
Дополнительные параметры : -6 -V -T "ARTIST=%artist%" -T "TITLE=%title%" -T "ALBUM=%albumtitle%" -T "DATE=%year%" -T "TRACKNUMBER=%tracknr%" -T "GENRE=%genre%" -T "COMMENT=%comment%" -T "BAND=%albuminterpret%" -T "ALBUMARTIST=%albuminterpret%" -T "COMPOSER=%composer%" %haslyrics%--tag-from-file=LYRICS="%lyricsfile%"%haslyrics% -T "DISCNUMBER=%cdnumber%" -T "TOTALDISCS=%totalcds%" -T "TOTALTRACKS=%numtracks%" %hascover%--picture="%coverfile%"%hascover% %source% -o %dest%
TOC извлечённого CD
Трек | Старт | Длительность | Начальный сектор | Конечный сектор
---------------------------------------------------------------------
1 | 0:00.00 | 3:17.10 | 0 | 14784
2 | 3:17.10 | 5:09.52 | 14785 | 38011
3 | 8:26.62 | 4:30.56 | 38012 | 58317
4 | 12:57.43 | 4:30.16 | 58318 | 78583
5 | 17:27.59 | 3:04.17 | 78584 | 92400
6 | 20:32.01 | 2:35.48 | 92401 | 104073
7 | 23:07.49 | 2:41.25 | 104074 | 116173
8 | 25:48.74 | 3:45.12 | 116174 | 133060
9 | 29:34.11 | 3:40.63 | 133061 | 149623
10 | 33:14.74 | 3:18.50 | 149624 | 164523
11 | 36:33.49 | 3:09.18 | 164524 | 178716
12 | 39:42.67 | 1:54.37 | 178717 | 187303
13 | 41:37.29 | 1:31.72 | 187304 | 194200
14 | 43:09.26 | 3:22.01 | 194201 | 209351
15 | 46:31.27 | 4:41.16 | 209352 | 230442
16 | 51:12.43 | 4:37.01 | 230443 | 251218
17 | 55:49.44 | 2:18.42 | 251219 | 261610
18 | 58:08.11 | 4:08.18 | 261611 | 280228
19 | 62:16.29 | 3:40.67 | 280229 | 296795
20 | 65:57.21 | 2:44.28 | 296796 | 309123
Характеристики диапазона извлечения и сообщения об ошибках
Выбранный диапазон
Имя файла D:\Ray Charles – The Very Best Of Ray Charles\CD5\Ray Charles - The Very Best Of [CD5].wav
Пиковый уровень 100.0 %
Скорость извлечения 3.3 X
Качество диапазона 100.0 %
CRC теста 3C8E1F88
CRC копии 3C8E1F88
Копирование... OK
Ошибок не произошло
AccurateRip: сводка
Трек 1 : извлечено точно (доверие 2) [F7091F36] (AR v2)
Трек 2 : извлечено точно (доверие 2) [8564CA5A] (AR v2)
Трек 3 : извлечено точно (доверие 2) [3EC6C9DC] (AR v2)
Трек 4 : извлечено точно (доверие 2) [B48E7AFA] (AR v2)
Трек 5 : извлечено точно (доверие 2) [B70C9D7F] (AR v2)
Трек 6 : извлечено точно (доверие 2) [47E92284] (AR v2)
Трек 7 : извлечено точно (доверие 2) [87E4876C] (AR v2)
Трек 8 : извлечено точно (доверие 2) [3CD1566C] (AR v2)
Трек 9 : извлечено точно (доверие 2) [6A08EE81] (AR v2)
Трек 10 : извлечено точно (доверие 2) [7E84C77F] (AR v2)
Трек 11 : извлечено точно (доверие 2) [065D0EA6] (AR v2)
Трек 12 : извлечено точно (доверие 2) [24ADD07A] (AR v2)
Трек 13 : извлечено точно (доверие 2) [6FFA9EB4] (AR v2)
Трек 14 : извлечено точно (доверие 2) [805B34DC] (AR v2)
Трек 15 : извлечено точно (доверие 2) [AE69AF6C] (AR v2)
Трек 16 : извлечено точно (доверие 2) [F65257F0] (AR v2)
Трек 17 : извлечено точно (доверие 2) [7D43B23E] (AR v2)
Трек 18 : извлечено точно (доверие 2) [03E63ED7] (AR v2)
Трек 19 : извлечено точно (доверие 2) [1693642B] (AR v2)
Трек 20 : извлечено точно (доверие 2) [3805F74F] (AR v2)
Все треки извлечены точно
Конец отчёта
==== Контрольная сумма отчёта B9405C3956E8486DABD37154554B17DD0BDA671729C81F49A59512434C77223F ====
Приватный:
Нет (DHT включён)
Размер:
1.66 Гб (1,786,785,931 байт) » файлов: 41
Участники:
0 раздают, 0 качают (0 участников всего)
Внешние участники:
18 раздают, 6 качают (24 участников всего) [ Обновить ]
Есть вопросы - пишите личное сообщение пользователю M0p94ok.
15:20
132
Нет комментариев. Ваш будет первым!