Вы используете незарегистрированную версию компонента "Вкладки"!

Поиск

(Ragtime) Scott Joplin - Portrait - 2003, FLAC (image+.cue), lossless

(Ragtime) Scott Joplin - Portrait - 2003, FLAC (image+.cue), lossless
Треклист:
Scott Joplin / Portrait
Жанр: Ragtime
Страна-производитель диска: USA
Год издания диска: 2003
Издатель (лейбл): Blue Classic Line
Номер по каталогу: 7189
Страна: USA
Аудиокодек: FLAC (*.flac)
Тип рипа: image+.cue
Битрейт аудио: lossless
Продолжительность: 51:46
Источник (релизер): ed2k
Наличие сканов в содержимом раздачи: нет
Треклист:
01. Lily Queen (3:26)
02. Heliotrope Bouquet (3:28)
03. Pineapple Rag (5:01)
04. Something Doing (2:46)
05. Paragon Rag (3:40)
06. A Real Slow Rag (3:52)
07. The Entertainer (3:06)
08. Sun Flower Slow Drag (3:08)
09. Maple Leaf Rag (3:07)
10. Elite Sincopations (3:14)
11. Cleopha (3:16)
12. The Chrysanthemum (3:52)
13. Leola (3:23)
14. Euphonic Sounds (2:55)
15. Eugenia (3:33)
 
Лог создания рипа
Exact Audio Copy V0.99 prebeta 3 from 28. July 2007
EAC extraction logfile from 12. February 2008, 19:39
Scott Joplin / Scott Joplin Portrait
Used drive : HL-DT-STDVDRRW GSA-H20L Adapter: 5 ID: 0
Read mode : Secure
Utilize accurate stream : Yes
Defeat audio cache : Yes
Make use of C2 pointers : No
Read offset correction : 102
Overread into Lead-In and Lead-Out : No
Fill up missing offset samples with silence : Yes
Delete leading and trailing silent blocks : No
Null samples used in CRC calculations : Yes
Used interface : Installed external ASPI interface
Used output format : User Defined Encoder
Selected bitrate : 1024 kBit/s
Quality : High
Add ID3 tag : No
Command line compressor : C:\Programmi\Exact Audio Copy\FLAC\FLAC.EXE
Additional command line options : -8 -V -T "ARTIST=%a" -T "TITLE=%t" -T "ALBUM=%g" -T "DATE=%y" -T "TRACKNUMBER=%n" -T "GENRE=%m" -T "COMMENT=%e" %s -o %d
TOC of the extracted CD
Track | Start | Length | Start sector | End sector
---------------------------------------------------------
1 | 0:00.00 | 3:26.08 | 0 | 15457
2 | 3:26.08 | 3:28.15 | 15458 | 31072
3 | 6:54.23 | 5:00.56 | 31073 | 53628
4 | 11:55.04 | 2:46.15 | 53629 | 66093
5 | 14:41.19 | 3:40.07 | 66094 | 82600
6 | 18:21.26 | 3:51.39 | 82601 | 99964
7 | 22:12.65 | 3:06.12 | 99965 | 113926
8 | 25:19.02 | 3:08.27 | 113927 | 128053
9 | 28:27.29 | 3:06.40 | 128054 | 142043
10 | 31:33.69 | 3:13.68 | 142044 | 156586
11 | 34:47.62 | 3:16.12 | 156587 | 171298
12 | 38:03.74 | 3:51.60 | 171299 | 188683
13 | 41:55.59 | 3:22.67 | 188684 | 203900
14 | 45:18.51 | 2:54.49 | 203901 | 216999
15 | 48:13.25 | 3:33.34 | 217000 | 233008
Range status and errors
Selected range
Filename C:\Documents and Settings\HP_Proprietario\Desktop\scott joplin\Scott Joplin - Scott Joplin Portrait.wav
Peak level 100.0 %
Range quality 99.9 %
Test CRC 316C4E80
Copy CRC 316C4E80
Copy OK
No errors occurred
AccurateRip summary
Track 1 not present in database
Track 2 not present in database
Track 3 not present in database
Track 4 not present in database
Track 5 not present in database
Track 6 not present in database
Track 7 not present in database
Track 8 not present in database
Track 9 not present in database
Track 10 not present in database
Track 11 not present in database
Track 12 not present in database
Track 13 not present in database
Track 14 not present in database
Track 15 not present in database
None of the tracks are present in the AccurateRip database
End of status report
Any questions - support@pro-jazz.com.
Есть вопросы - support@pro-jazz.com
01:57
352
Нет комментариев. Ваш будет первым!