Вы используете незарегистрированную версию компонента "Вкладки"!

Поиск

(Ragtime, Jazz) Scott Joplin - RagTime - 2000, APE (image+.cue), lossless

(Ragtime, Jazz) Scott Joplin - RagTime - 2000, APE (image+.cue), lossless
Треклист:
Scott Joplin / RagTime
Жанр: Ragtime, Jazz
Страна-производитель диска: Russia
Год издания: 2000
Издатель (лейбл): ML Records
Номер по каталогу: RA 07 12 CD
Страна: USA
Аудиокодек: APE (*.ape)
Тип рипа: image+.cue
Битрейт аудио: lossless
Продолжительность: 01:04:51
Источник (релизер): Cобственный релиз
Наличие сканов в содержимом раздачи: да
Треклист:
01. The Entertainer
02. Maple Leaf Rag
03. Stoptime Rag
04. Magnetic Rag
05. Euophonic Sounds
06. Bethena. Concert Waltz
07. Ragtime dance
08. Paragon Rag
09. Elite Syncopations
10. The Strenuous Life
11. Pleasant Moments
12. Peacherine Rag
13. Swipesy
14. Pineapple
15. Cascades
16. Something Doing
17. Eugenia
18. Wll Street Rag
 
Лог создания рипа
Exact Audio Copy V0.99 prebeta 5 from 4. May 2009
Отчёт EAC об извлечении, выполненном 10. ноября 2012, 17:05
Scott Joplin / RegTime
Дисковод: Optiarc DVD RW AD-7200S Adapter: 3 ID: 0
Режим чтения : Достоверность
Использование точного потока : Да
Отключение кэша аудио : Да
Использование указателей C2 : Нет
Коррекция смещения при чтении : 48
Способность читать области Lead-in и Lead-out : Нет
Заполнение пропущенных сэмплов тишиной : Да
Удаление блоков с тишиной в начале и конце : Нет
При вычислениях CRC использовались нулевые сэмплы : Да
Интерфейс : Встроенный Win32-интерфейс для Win NT/2000
Выходной формат : Внутренние WAV-операции
Формат сэмплов : 44.100 Гц; 16 бит; стерео
TOC извлечённого CD
Трек | Старт | Длительность | Начальный сектор | Конечный сектор
---------------------------------------------------------------------
1 | 0:00.00 | 5:05.37 | 0 | 22911
2 | 5:05.37 | 3:17.59 | 22912 | 37745
3 | 8:23.21 | 2:55.54 | 37746 | 50924
4 | 11:19.00 | 5:16.16 | 50925 | 74640
5 | 16:35.16 | 3:58.12 | 74641 | 92502
6 | 20:33.28 | 5:20.21 | 92503 | 116523
7 | 25:53.49 | 3:18.20 | 116524 | 131393
8 | 29:11.69 | 3:48.58 | 131394 | 148551
9 | 33:00.52 | 3:14.27 | 148552 | 163128
10 | 36:15.04 | 3:00.52 | 163129 | 176680
11 | 39:15.56 | 2:33.53 | 176681 | 188208
12 | 41:49.34 | 3:06.46 | 188209 | 202204
13 | 44:56.05 | 3:03.61 | 202205 | 215990
14 | 47:59.66 | 5:01.15 | 215991 | 238580
15 | 53:01.06 | 2:49.49 | 238581 | 251304
16 | 55:50.55 | 2:46.39 | 251305 | 263793
17 | 58:37.19 | 3:36.15 | 263794 | 280008
18 | 62:13.34 | 2:38.60 | 280009 | 291918
Характеристики диапазона извлечения и сообщения об ошибках
Выбранный диапазон
Имя файла C:\Users\Bishop\Desktop\Scott Joplin - RegTime\Scott Joplin - RegTime.wav
Пиковый уровень 80.8 %
Качество диапазона 100.0 %
CRC теста 7BFA522C
CRC копии 7BFA522C
Копирование... OK
Ошибок не произошло
AccurateRip: сводка
Трек 1 нет в базе данных
Трек 2 нет в базе данных
Трек 3 нет в базе данных
Трек 4 нет в базе данных
Трек 5 нет в базе данных
Трек 6 нет в базе данных
Трек 7 нет в базе данных
Трек 8 нет в базе данных
Трек 9 нет в базе данных
Трек 10 нет в базе данных
Трек 11 нет в базе данных
Трек 12 нет в базе данных
Трек 13 нет в базе данных
Трек 14 нет в базе данных
Трек 15 нет в базе данных
Трек 16 нет в базе данных
Трек 17 нет в базе данных
Трек 18 нет в базе данных
Ни одного трека нет в базе AccurateRip
Конец отчёта
 
Содержание индексной карты (.CUE)
REM GENRE Rag
REM DATE 2000
REM DISCID 150F3412
REM COMMENT "ExactAudioCopy v0.99pb5"
PERFORMER "Scott Joplin"
TITLE "RegTime"
FILE "Scott Joplin - RegTime.ape" WAVE
TRACK 01 AUDIO
TITLE "The Entertainer"
PERFORMER "Scott Joplin"
INDEX 01 00:00:00
TRACK 02 AUDIO
TITLE "Maple Leaf Rag"
PERFORMER "Scott Joplin"
INDEX 01 05:05:37
TRACK 03 AUDIO
TITLE "Stoptime Rag"
PERFORMER "Scott Joplin"
INDEX 01 08:23:21
TRACK 04 AUDIO
TITLE "Magnetic Rag"
PERFORMER "Scott Joplin"
INDEX 01 11:19:00
TRACK 05 AUDIO
TITLE "Euophonic Sounds"
PERFORMER "Scott Joplin"
INDEX 01 16:35:16
TRACK 06 AUDIO
TITLE "Bethena. Concert Waltz"
PERFORMER "Scott Joplin"
INDEX 01 20:33:28
TRACK 07 AUDIO
TITLE "Ragtime dance"
PERFORMER "Scott Joplin"
INDEX 01 25:53:49
TRACK 08 AUDIO
TITLE "Paragon Rag"
PERFORMER "Scott Joplin"
INDEX 01 29:11:69
TRACK 09 AUDIO
TITLE "Elite Syncopations"
PERFORMER "Scott Joplin"
INDEX 01 33:00:52
TRACK 10 AUDIO
TITLE "The Strenuous Life"
PERFORMER "Scott Joplin"
INDEX 01 36:15:04
TRACK 11 AUDIO
TITLE "Pleasant Moments"
PERFORMER "Scott Joplin"
INDEX 01 39:15:56
TRACK 12 AUDIO
TITLE "Peacherine Rag"
PERFORMER "Scott Joplin"
INDEX 01 41:49:34
TRACK 13 AUDIO
TITLE "Swipesy"
PERFORMER "Scott Joplin"
INDEX 01 44:56:05
TRACK 14 AUDIO
TITLE "Pineapple"
PERFORMER "Scott Joplin"
INDEX 01 47:59:66
TRACK 15 AUDIO
TITLE "Cascades"
PERFORMER "Scott Joplin"
INDEX 01 53:01:06
TRACK 16 AUDIO
TITLE "Something Doing"
PERFORMER "Scott Joplin"
INDEX 01 55:50:55
TRACK 17 AUDIO
TITLE "Eugenia"
PERFORMER "Scott Joplin"
INDEX 01 58:37:19
TRACK 18 AUDIO
TITLE "Wll Street Rag"
PERFORMER "Scott Joplin"
INDEX 01 62:13:34
 
Лог проверки качества
Started at: ñóááîòà, 10. 11. 2012. - 17:10.49
1 file found
1 -===- C:\Users\Bishop\Desktop\Scott Joplin - RegTime.wav
Conclusion: this track is CDDA with probability 100%
Finished at: ñóááîòà, 10. 11. 2012. - 17:16.32 (operation time: 0:05.43)
Any questions - support@pro-jazz.com.
Есть вопросы - support@pro-jazz.com
06:09
449
Нет комментариев. Ваш будет первым!