Поиск

(Radical Jewish Culture, klezmer, avantgarde) Gary Lucas - Busy Being Born (feat. John Zorn, Greg Cohen), FLAC (image+.cue), lossless

(Radical Jewish Culture, klezmer, avantgarde) Gary Lucas - Busy Being Born (feat. John Zorn, Greg Cohen), FLAC (image+.cue), lossless
Треклист:
Gary Lucas - Busy Being Born (feat. John Zorn, Greg Cohen)
Жанр: Radical Jewish Culture, klezmer, avantgarde
Производитель диска: USA (Tzadik)
Аудио кодек: FLAC
Тип рипа: image+.cue
Битрейт аудио: lossless
Продолжительность: 49.20
Трэклист:
1. Adon Olom (instrumental)
2. Adon Olom
3. Shekhinah
4. Sandman
5. Sunrise Sunset
6. Tradition
7. The Mensch in the Moon
8. Lydia the Tattooed Lady
9. Crawlspace
10. Dayenu/Dreidel
11. Fleischerei
12. A Hundred Pounds Of Clay
13. The Seven Faces of Dr. Lao
14. Abie the Fishman
15. Hinay Ma Tov
16. Theme from Exodus
17. Adon Olom
Доп. информация: FOR CHILDREN OF ALL AGES (and you don't have to be Jewish)
Greg Cohen: Acoustic Bass
Larry Fine: Vocals
Kenny Hurwitz: Vocals
Jonathan Kane: Drums
Misako Kano: Piano
Gary Lucas: Guitars, Vocals, Arranger
John Zorn: Alto Sax
 
eac log
Exact Audio Copy V0.99 prebeta 4 from 23. January 2008
Отчёт EAC об извлечении, выполненном 23. сентября 2008, 20:48
Gary Lucas / Busy Being Born
Дисковод: Optiarc DVD RW AD-7170A Adapter: 0 ID: 1
Режим чтения : Достоверность
Использование точного потока : Да
Отключение кэша аудио : Да
Использование указателей C2 : Нет
Коррекция смещения при чтении : 48
Способность читать области Lead-in и Lead-out : Нет
Заполнение пропущенных сэмплов тишиной : Да
Удаление блоков с тишиной в начале и конце : Нет
При вычислениях CRC использовались нулевые сэмплы : Да
Интерфейс : Встроенный Win32-интерфейс для Win NT/2000
Выходной формат : Пользовательский кодировщик
Выбранный битрейт : 768 kBit/s
Качество : Высокий
Добавление ID3-тэга : Нет
Утилита сжатия : D:\Program Files\Exact Audio Copy\FLAC\FLAC.EXE
Дополнительные параметры : -6 -V -T "ARTIST=%a" -T "TITLE=%t" -T "ALBUM=%g" -T "DATE=%y" -T "TRACKNUMBER=%n" -T "GENRE=%m" -T "COMMENT=%e" %s -o %d
TOC извлечённого CD
Трек | Старт | Длительность | Начальный сектор | Конечный сектор
---------------------------------------------------------------------
1 | 0:00.00 | 1:32.02 | 0 | 6901
2 | 1:32.02 | 3:11.50 | 6902 | 21276
3 | 4:43.52 | 2:19.70 | 21277 | 31771
4 | 7:03.47 | 4:27.30 | 31772 | 51826
5 | 11:31.02 | 2:53.30 | 51827 | 64831
6 | 14:24.32 | 2:35.45 | 64832 | 76501
7 | 17:00.02 | 5:08.00 | 76502 | 99601
8 | 22:08.02 | 2:06.73 | 99602 | 109124
9 | 24:15.00 | 3:08.12 | 109125 | 123236
10 | 27:23.12 | 2:56.20 | 123237 | 136456
11 | 30:19.32 | 3:01.30 | 136457 | 150061
12 | 33:20.62 | 2:41.38 | 150062 | 162174
13 | 36:02.25 | 2:06.72 | 162175 | 171696
14 | 38:09.22 | 2:28.43 | 171697 | 182839
15 | 40:37.65 | 2:53.57 | 182840 | 195871
16 | 43:31.47 | 2:50.38 | 195872 | 208659
17 | 46:22.10 | 2:57.15 | 208660 | 221949
Характеристики диапазона извлечения и сообщения об ошибках
Выбранный диапазон
Имя файла D:\EAC\Gary Lucas - Busy Being Born.wav
Пиковый уровень 98.1 %
Качество диапазона 99.9 %
CRC копии 3CD08CC9
Копирование... OK
Ошибок не произошло
AccurateRip: сводка
Трек 1 нет в базе данных
Трек 2 нет в базе данных
Трек 3 нет в базе данных
Трек 4 точность не определена (достоверность 1) [B4408B56], AccurateRip вернул [FD6176E8]
Трек 5 нет в базе данных
Трек 6 точность не определена (достоверность 1) [8F43E05C], AccurateRip вернул [EE850AA5]
Трек 7 нет в базе данных
Трек 8 точность не определена (достоверность 1) [375808B2], AccurateRip вернул [99B3E61D]
Трек 9 точность не определена (достоверность 1) [8CC88896], AccurateRip вернул [5DED2E42]
Трек 10 нет в базе данных
Трек 11 точность не определена (достоверность 1) [D07EAF80], AccurateRip вернул [884A14AC]
Трек 12 нет в базе данных
Трек 13 точность не определена (достоверность 1) [C7BC13F3], AccurateRip вернул [1C3036F6]
Трек 14 нет в базе данных
Трек 15 нет в базе данных
Трек 16 нет в базе данных
Трек 17 нет в базе данных
6 трек(и) не удалось проверить на точность
11 трек(и) не содержатся в базе AccurateRip
Ни один трек не прошёл проверки на точность
В вашей базе может быть иной вариант штамповки диска
Конец отчёта
02:48
263
Нет комментариев. Ваш будет первым!