Поиск

(Radical Jewish Culture, avantgarde, klezmer, noise) John Zorn - Kristallnacht - 1993, FLAC (image + .cue), lossless

(Radical Jewish Culture, avantgarde, klezmer, noise) John Zorn - Kristallnacht - 1993, FLAC (image + .cue), lossless
Треклист:
John Zorn - Kristallnacht
Страна: USA
Жанр: Radical Jewish Culture, avantgarde, klezmer, noise
Год выпуска: 1993
Формат: FLAC (image + .cue)
Битрейт аудио: lossless
Продолжительность: 43.03
Трэклист:
1. Shtetl (Ghetto Life)
2. Never Again
3. Gahelet (Embers)
4. Tikkun (Rectification)
5. Tzfia (Looking Ahead)
6. Barzel (Iron Fist)
7. Garin (Nucleus-The New Settlement)
Доп. информация: Anthony Coleman: Keyboards
Mark Dresser: Bass
Mark Feldman: Violin
David Krakauer: Clarinet, Bass Clarinet
Frank London: Trumpet
Marc Ribot: Guitar
William Winant: Percussion
 
EAC log
Exact Audio Copy V0.99 prebeta 4 from 23. January 2008
Отчёт EAC об извлечении, выполненном 16. мая 2008, 14:46
John Zorn / Kristallnacht
Дисковод: Optiarc DVD RW AD-7170A Adapter: 0 ID: 1
Режим чтения : Достоверность
Использование точного потока : Да
Отключение кэша аудио : Да
Использование указателей C2 : Нет
Коррекция смещения при чтении : 48
Способность читать области Lead-in и Lead-out : Нет
Заполнение пропущенных сэмплов тишиной : Да
Удаление блоков с тишиной в начале и конце : Нет
При вычислениях CRC использовались нулевые сэмплы : Нет
Интерфейс : Встроенный Win32-интерфейс для Win NT/2000
Выходной формат : Пользовательский кодировщик
Выбранный битрейт : 768 kBit/s
Качество : Высокий
Добавление ID3-тэга : Нет
Утилита сжатия : C:\Program Files\Exact Audio Copy\FLAC\FLAC.EXE
Дополнительные параметры : -6 -V -T "ARTIST=%a" -T "TITLE=%t" -T "ALBUM=%g" -T "DATE=%y" -T "TRACKNUMBER=%n" -T "GENRE=%m" -T "COMMENT=%e" %s -o %d
TOC извлечённого CD
Трек | Старт | Длительность | Начальный сектор | Конечный сектор
---------------------------------------------------------------------
1 | 0:00.00 | 5:55.20 | 0 | 26644
2 | 5:55.20 | 11:46.30 | 26645 | 79624
3 | 17:41.50 | 3:27.42 | 79625 | 95191
4 | 21:09.17 | 3:02.00 | 95192 | 108841
5 | 24:11.17 | 8:49.38 | 108842 | 148554
6 | 33:00.55 | 2:02.54 | 148555 | 157758
7 | 35:03.34 | 7:59.56 | 157759 | 193739
Характеристики диапазона извлечения и сообщения об ошибках
Выбранный диапазон
Имя файла C:\Music\John Zorn - Kristallnacht.wav
Пиковый уровень 97.3 %
Качество диапазона 100.0 %
CRC копии 8C9E6300
Копирование... OK
Ошибок не произошло
AccurateRip: сводка
Трек 1 точность не определена (достоверность 2) [E6C01FFF], AccurateRip вернул [838B82BD]
Трек 2 точность не определена (достоверность 2) [9014FF2D], AccurateRip вернул [C00F9EA3]
Трек 3 точность не определена (достоверность 2) [086671EE], AccurateRip вернул [C7542E60]
Трек 4 точность не определена (достоверность 2) [9FB1E363], AccurateRip вернул [2BDF1ECD]
Трек 5 точность не определена (достоверность 2) [BFB7EEE8], AccurateRip вернул [83077F56]
Трек 6 точность не определена (достоверность 2) [CDFDF463], AccurateRip вернул [41789A2C]
Трек 7 точность не определена (достоверность 2) [CC37B47D], AccurateRip вернул [9C8E4246]
Ни один трек не прошёл проверки на точность
В вашей базе может быть иной вариант штамповки диска
Конец отчёта
01:17
285
Нет комментариев. Ваш будет первым!