Поиск

(R&B, soul) The Persuasions - коллекция: Sing Grateful Dead (2000), Sing The Beatles (2002), FLAC (image+.cue), lossless

(R&B, soul) The Persuasions - коллекция: Sing Grateful Dead (2000), Sing The Beatles (2002), FLAC (image+.cue), lossless
Треклист:
The Persuasions - коллекция: Sing Grateful Dead (2000), Sing The Beatles (2002)

Жанр: R&B, Soul, A capella
Носитель: CD
Год издания: 2000-2002
Страна исполнителя (группы): US
 
2000. The Persuasions - Might As Well... The Persuasions Sing Grateful Dead {2000, US, Grateful Dead Rec. GDCD 4070}
Страна-производитель диска: US
Год первого выпуска: 2000
Год настоящего издания: 2000
Издатель (лейбл): Grateful Dead Records
Номер по каталогу: GDCD 4070
Format: HDCD, Album
Аудиокодек: FLAC (*.flac)
Тип рипа: tracks+.cue
Битрейт аудио: lossless
Продолжительность: 01:09:37
Источник (релизер): интернет
Наличие сканов в содержимом раздачи: да
Треклист:
01. Here Comes Sunshine (00:27)
02. Might As Well (03:30)
03. Lazy River Road (05:32)
04. Loose Lucy (04:22)
05. Ripple (03:11)
06. Brokedown Palace (04:24)
07. Liberty (05:17)
08. Sugaree (05:38)
09. Ship of Fools (08:20)
10. He's Gone (06:29)
11. It Must Have Been the Roses (04:51)
12. One More Saturday Night (05:34)
13. Bertha (05:36)
14. I Bid You Good Night (02:00)
15. Black Muddy River (04:14)
 
Лог создания рипа
Exact Audio Copy V0.99 prebeta 4 from 23. January 2008
EAC extraction logfile from 26. January 2009, 17:53
The Persuasions / Might As Well... The Persuasions Sing Grateful Dead
Used drive : PLDS DVD+-RW DH-16A6S Adapter: 0 ID: 1
Read mode : Secure
Utilize accurate stream : Yes
Defeat audio cache : Yes
Make use of C2 pointers : No
Read offset correction : 6
Overread into Lead-In and Lead-Out : No
Fill up missing offset samples with silence : Yes
Delete leading and trailing silent blocks : No
Null samples used in CRC calculations : Yes
Used interface : Native Win32 interface for Win NT & 2000
Gap handling : Appended to previous track
Used output format : User Defined Encoder
Selected bitrate : 128 kBit/s
Quality : High
Add ID3 tag : No
Command line compressor : C:\Program Files (x86)\Exact Audio Copy\Flac\flac.exe
Additional command line options : -V -8 -T "artist=%a" -T "title=%t" -T "album=%g" -T "date=%y" -T "tracknumber=%n" -T "genre=%m" %s
TOC of the extracted CD
Track | Start | Length | Start sector | End sector
---------------------------------------------------------
1 | 0:00.00 | 0:27.42 | 0 | 2066
2 | 0:27.42 | 3:30.25 | 2067 | 17841
3 | 3:57.67 | 5:33.68 | 17842 | 42884
4 | 9:31.60 | 4:23.15 | 42885 | 62624
5 | 13:55.00 | 3:10.40 | 62625 | 76914
6 | 17:05.40 | 4:25.12 | 76915 | 96801
7 | 21:30.52 | 5:17.68 | 96802 | 120644
8 | 26:48.45 | 5:37.65 | 120645 | 145984
9 | 32:26.35 | 8:20.25 | 145985 | 183509
10 | 40:46.60 | 6:29.25 | 183510 | 212709
11 | 47:16.10 | 4:50.40 | 212710 | 234499
12 | 52:06.50 | 5:34.22 | 234500 | 259571
13 | 57:40.72 | 5:37.20 | 259572 | 284866
14 | 63:18.17 | 2:04.58 | 284867 | 294224
15 | 65:23.00 | 4:14.22 | 294225 | 313296
Track 1
Filename F:\FLAC Files\Pusuasions - Might As Well... The Persuasions Sing Grateful Dead (2000) [FLAC]\01 - Here Comes Sunshine.wav
Pre-gap length 0:00:02.00
Peak level 83.7 %
Track quality 99.6 %
Test CRC 9321B5A4
Copy CRC 9321B5A4
Accurately ripped (confidence 4) [408D449C]
Copy OK
Track 2
Filename F:\FLAC Files\Pusuasions - Might As Well... The Persuasions Sing Grateful Dead (2000) [FLAC]\02 - Might As Well.wav
Peak level 92.4 %
Track quality 100.0 %
Test CRC 59088E5A
Copy CRC 59088E5A
Accurately ripped (confidence 4) [D1109DD7]
Copy OK
Track 3
Filename F:\FLAC Files\Pusuasions - Might As Well... The Persuasions Sing Grateful Dead (2000) [FLAC]\03 - Lazy River Road.wav
Peak level 95.3 %
Track quality 100.0 %
Test CRC 525FEB60
Copy CRC 525FEB60
Accurately ripped (confidence 4) [CFBF186B]
Copy OK
Track 4
Filename F:\FLAC Files\Pusuasions - Might As Well... The Persuasions Sing Grateful Dead (2000) [FLAC]\04 - Loose Lucy.wav
Pre-gap length 0:00:01.30
Peak level 97.0 %
Track quality 100.0 %
Test CRC F886C1FB
Copy CRC F886C1FB
Accurately ripped (confidence 4) [08E4D0B9]
Copy OK
Track 5
Filename F:\FLAC Files\Pusuasions - Might As Well... The Persuasions Sing Grateful Dead (2000) [FLAC]\05 - Ripple.wav
Peak level 94.5 %
Track quality 100.0 %
Test CRC FED2D6EF
Copy CRC FED2D6EF
Accurately ripped (confidence 4) [60A03AD2]
Copy OK
Track 6
Filename F:\FLAC Files\Pusuasions - Might As Well... The Persuasions Sing Grateful Dead (2000) [FLAC]\06 - Brokedown Palace.wav
Peak level 95.8 %
Track quality 100.0 %
Test CRC CECCA1A0
Copy CRC CECCA1A0
Accurately ripped (confidence 4) [60845172]
Copy OK
Track 7
Filename F:\FLAC Files\Pusuasions - Might As Well... The Persuasions Sing Grateful Dead (2000) [FLAC]\07 - Liberty.wav
Peak level 90.5 %
Track quality 100.0 %
Test CRC 2D7E0581
Copy CRC 2D7E0581
Accurately ripped (confidence 4) [FE7F54A8]
Copy OK
Track 8
Filename F:\FLAC Files\Pusuasions - Might As Well... The Persuasions Sing Grateful Dead (2000) [FLAC]\08 - Sugaree.wav
Peak level 92.8 %
Track quality 100.0 %
Test CRC 51EC4760
Copy CRC 51EC4760
Accurately ripped (confidence 4) [A76DE394]
Copy OK
Track 9
Filename F:\FLAC Files\Pusuasions - Might As Well... The Persuasions Sing Grateful Dead (2000) [FLAC]\09 - Ship of Fools.wav
Peak level 93.8 %
Track quality 100.0 %
Test CRC BCC52CCB
Copy CRC BCC52CCB
Accurately ripped (confidence 4) [D546964D]
Copy OK
Track 10
Filename F:\FLAC Files\Pusuasions - Might As Well... The Persuasions Sing Grateful Dead (2000) [FLAC]\10 - He's Gone.wav
Peak level 92.8 %
Track quality 100.0 %
Test CRC FA27D894
Copy CRC FA27D894
Accurately ripped (confidence 4) [CF031079]
Copy OK
Track 11
Filename F:\FLAC Files\Pusuasions - Might As Well... The Persuasions Sing Grateful Dead (2000) [FLAC]\11 - It Must Have Been the Roses.wav
Peak level 94.1 %
Track quality 99.9 %
Test CRC A1EFF0A7
Copy CRC A1EFF0A7
Accurately ripped (confidence 4) [32585E57]
Copy OK
Track 12
Filename F:\FLAC Files\Pusuasions - Might As Well... The Persuasions Sing Grateful Dead (2000) [FLAC]\12 - One More Saturday Night.wav
Peak level 95.2 %
Track quality 100.0 %
Test CRC 8F28FE02
Copy CRC 8F28FE02
Accurately ripped (confidence 4) [6CBFED46]
Copy OK
Track 13
Filename F:\FLAC Files\Pusuasions - Might As Well... The Persuasions Sing Grateful Dead (2000) [FLAC]\13 - Bertha.wav
Peak level 94.6 %
Track quality 100.0 %
Test CRC AF4CBD3F
Copy CRC AF4CBD3F
Accurately ripped (confidence 4) [24104B77]
Copy OK
Track 14
Filename F:\FLAC Files\Pusuasions - Might As Well... The Persuasions Sing Grateful Dead (2000) [FLAC]\14 - I Bid You Good Night.wav
Pre-gap length 0:00:01.29
Peak level 94.6 %
Track quality 100.0 %
Test CRC 2B30CBBD
Copy CRC 2B30CBBD
Accurately ripped (confidence 4) [07309793]
Copy OK
Track 15
Filename F:\FLAC Files\Pusuasions - Might As Well... The Persuasions Sing Grateful Dead (2000) [FLAC]\15 - Black Muddy River.wav
Pre-gap length 0:00:04.37
Peak level 94.1 %
Track quality 100.0 %
Test CRC BE8C4E8B
Copy CRC BE8C4E8B
Accurately ripped (confidence 4) [90EBA246]
Copy OK
All tracks accurately ripped
No errors occurred
End of status report
 
Содержание индексной карты (.CUE)
REM GENRE "Doo Wop"
REM DISCID D410510F
REM COMMENT "ExactAudioCopy v0.99pb4"
PERFORMER "The Persuasions"
TITLE "Might As Well... The Persuasions Sing Grateful Dead"
FILE "01 - Here Comes Sunshine.wav" WAVE
TRACK 01 AUDIO
TITLE "Here Comes Sunshine"
PERFORMER "The Persuasions"
INDEX 01 00:00:00
FILE "02 - Might As Well.wav" WAVE
TRACK 02 AUDIO
TITLE "Might As Well"
PERFORMER "The Persuasions"
INDEX 01 00:00:00
FILE "03 - Lazy River Road.wav" WAVE
TRACK 03 AUDIO
TITLE "Lazy River Road"
PERFORMER "The Persuasions"
INDEX 01 00:00:00
TRACK 04 AUDIO
TITLE "Loose Lucy"
PERFORMER "The Persuasions"
INDEX 00 05:32:45
FILE "04 - Loose Lucy.wav" WAVE
INDEX 01 00:00:00
FILE "05 - Ripple.wav" WAVE
TRACK 05 AUDIO
TITLE "Ripple"
PERFORMER "The Persuasions"
INDEX 01 00:00:00
FILE "06 - Brokedown Palace.wav" WAVE
TRACK 06 AUDIO
TITLE "Brokedown Palace"
PERFORMER "The Persuasions"
INDEX 01 00:00:00
FILE "07 - Liberty.wav" WAVE
TRACK 07 AUDIO
TITLE "Liberty"
PERFORMER "The Persuasions"
INDEX 01 00:00:00
FILE "08 - Sugaree.wav" WAVE
TRACK 08 AUDIO
TITLE "Sugaree"
PERFORMER "The Persuasions"
INDEX 01 00:00:00
FILE "09 - Ship of Fools.wav" WAVE
TRACK 09 AUDIO
TITLE "Ship of Fools"
PERFORMER "The Persuasions"
INDEX 01 00:00:00
FILE "10 - He's Gone.wav" WAVE
TRACK 10 AUDIO
TITLE "He's Gone"
PERFORMER "The Persuasions"
INDEX 01 00:00:00
FILE "11 - It Must Have Been the Roses.wav" WAVE
TRACK 11 AUDIO
TITLE "It Must Have Been the Roses"
PERFORMER "The Persuasions"
INDEX 01 00:00:00
FILE "12 - One More Saturday Night.wav" WAVE
TRACK 12 AUDIO
TITLE "One More Saturday Night"
PERFORMER "The Persuasions"
INDEX 01 00:00:00
FILE "13 - Bertha.wav" WAVE
TRACK 13 AUDIO
TITLE "Bertha"
PERFORMER "The Persuasions"
INDEX 01 00:00:00
TRACK 14 AUDIO
TITLE "I Bid You Good Night"
PERFORMER "The Persuasions"
INDEX 00 05:35:73
FILE "14 - I Bid You Good Night.wav" WAVE
INDEX 01 00:00:00
TRACK 15 AUDIO
TITLE "Black Muddy River"
PERFORMER "The Persuasions"
INDEX 00 02:00:30
FILE "15 - Black Muddy River.wav" WAVE
INDEX 01 00:00:00
 
Лог проверки качества
AUDIOCHECKER v2.0 beta (build 457) - by Dester - opdester@freemail.hu
~~~~~~~~~~~~~~~~~~~~~~~~~~~~~~~~~~
-=== DO NOT EDIT THIS FILE! ===-
Path: ...\2000. The Persuasions - The Persuasions Sing Grateful Dead {2000, US, Grateful Dead Rec. GDCD 4070}
01 -=- 01 - Here Comes Sunshine.flac -=- CDDA (100%)
02 -=- 02 - Might As Well.flac -=- CDDA (100%)
03 -=- 03 - Lazy River Road.flac -=- CDDA (100%)
04 -=- 04 - Loose Lucy.flac -=- CDDA (99%)
05 -=- 05 - Ripple.flac -=- CDDA (100%)
06 -=- 06 - Brokedown Palace.flac -=- CDDA (100%)
07 -=- 07 - Liberty.flac -=- CDDA (99%)
08 -=- 08 - Sugaree.flac -=- CDDA (100%)
09 -=- 09 - Ship of Fools.flac -=- CDDA (99%)
10 -=- 10 - He's Gone.flac -=- CDDA (100%)
11 -=- 11 - It Must Have Been the Roses.flac -=- CDDA (100%)
12 -=- 12 - One More Saturday Night.flac -=- CDDA (100%)
13 -=- 13 - Bertha.flac -=- CDDA (100%)
14 -=- 14 - I Bid You Good Night.flac -=- CDDA (100%)
15 -=- 15 - Black Muddy River.flac -=- CDDA (100%)
Summary 99,80% CDDA
 
2002. The Persuasions - Sing The Beatles {2002, US, Chesky Rec. JD 220}
Страна-производитель диска: US
Год первого выпуска: 2002
Год настоящего издания: 2002
Издатель (лейбл): Chesky Records
Номер по каталогу: JD 220
Format: CD, Album
Аудиокодек: FLAC (*.flac)
Тип рипа: image+.cue
Битрейт аудио: lossless
Продолжительность: 00:49:25
Источник (релизер): ed2k
Наличие сканов в содержимом раздачи: да
Треклист:
01. Eight Days A Week (02:44)
02. Oh! Darling (03:34)
03. Come Together (03:45)
04. Rocky Raccoon (04:16)
05. Octopus's Garden (03:14)
06. Love Me Do (03:27)
07. With A Little Help From My Friends (02:58)
08. From Me To You (02:27)
09. Yesterday (03:39)
10. Ob La Di, Ob La Da (03:24)
11. Don't Let Me Down (04:46)
12. The Ballad Of John And Yoko (04:42)
13. Imagine (05:57)
14. Sgt. Pepper's Lonely Hearts Club Band (Reprise) (00:31)
 
Лог создания рипа
EAC extraction logfile from 9. November 2006, 11:45 for CD
The Persuasions / Sing The Beatles
Used drive : LITE-ON DVDRW SOHW-1213S Adapter: 1 ID: 1
Read mode : Secure with NO C2, accurate stream, disable cache
Read offset correction : 12
Overread into Lead-In and Lead-Out : No
Used output format : Internal WAV Routines
44.100 Hz; 16 Bit; Stereo
Other options :
Fill up missing offset samples with silence : Yes
Delete leading and trailing silent blocks : No
Installed external ASPI interface
Range status and errors
Selected range
Filename D:\INCOMING\EAC\CDImage.wav
Peak level 99.2 %
Range quality 100.0 %
CRC 4FCE0131
Copy OK
No errors occured
End of status report
 
Содержание индексной карты (.CUE)
PERFORMER "The Persuasions"
TITLE "Sing The Beatles"
FILE "The Persuasions - Sing The Beatles.wav" WAVE
TRACK 01 AUDIO
TITLE "Eight Days A Week"
PERFORMER "The Persuasions"
INDEX 01 00:00:00
TRACK 02 AUDIO
TITLE "Oh! Darling"
PERFORMER "The Persuasions"
INDEX 01 02:44:10
TRACK 03 AUDIO
TITLE "Come Together"
PERFORMER "The Persuasions"
INDEX 01 06:18:10
TRACK 04 AUDIO
TITLE "Rocky Raccoon"
PERFORMER "The Persuasions"
INDEX 01 10:04:10
TRACK 05 AUDIO
TITLE "Octopus's Garden"
PERFORMER "The Persuasions"
INDEX 01 14:20:10
TRACK 06 AUDIO
TITLE "Love Me Do"
PERFORMER "The Persuasions"
INDEX 01 17:34:10
TRACK 07 AUDIO
TITLE "With A Little Help From My Friends"
PERFORMER "The Persuasions"
INDEX 01 21:01:10
TRACK 08 AUDIO
TITLE "From Me To You"
PERFORMER "The Persuasions"
INDEX 01 23:59:10
TRACK 09 AUDIO
TITLE "Yesterday"
PERFORMER "The Persuasions"
INDEX 01 26:26:10
TRACK 10 AUDIO
TITLE "Ob La Di, Ob La Da"
PERFORMER "The Persuasions"
INDEX 01 30:05:10
TRACK 11 AUDIO
TITLE "Don't Let Me Down"
PERFORMER "The Persuasions"
INDEX 01 33:29:10
TRACK 12 AUDIO
TITLE "The Ballad Of John And Yoko"
PERFORMER "The Persuasions"
INDEX 01 38:15:10
TRACK 13 AUDIO
TITLE "Imagine"
PERFORMER "The Persuasions"
INDEX 01 42:57:10
TRACK 14 AUDIO
TITLE "Sgt. Pepper's Lonely Hearts Club Band (Reprise)"
PERFORMER "The Persuasions"
INDEX 01 48:54:10
Доп. информация: Persuasions - это четыре черных вокалиста и больше ничего. Запись сделана в церкви на ОДИН микрофон (High Resolution Technology 96/24 by Chesky Records). Один певец поет партию баса, один солирует (со словами) и два изображают аккорд (интервал), а иногда тоже поют слова как в хоре. Все песни по-своему аранжированы - что-то звучит как ду-воп, что-то как госпел, что-то как соул. Особенно интересно слушать вещи типа Come Together или Rocky Racoon, ведь в них изначально далеко не вокальное лидерство. Группа поет свободно, с юмором и очень живо. Запись соответствует понятию АУДИОФИЛЬСКАЯ.
 
Дискография

Albums
1970. Acappella
1971. We Came To Play
1971. Street Corner Symphony
1972. Spread The Word
1973. We Still Ain't Got No Band
1974. I Just Want To Sing With My Friends
1974. More Than Before
1977. Chirpin'
1979. Comin' At Ya
1982. Good News
1985. No Frills
1990. Do It A Cappella
1993. Live In The Whispering Gallery
1993. Toúbo's Song
1993. Ships at Sea, Sailors and Shoes [with Ned Sublette & Lawrence Weiner]
1994. Right Around The Corner
1996. Sincerely
1997. You're All I Want For Christmas
1997. Man, Oh Man: The Power of The Persuasions
1999. On The Good Ship Lollipop
2000. Frankly A Cappella: The Persuasions Sing Zappa
2000. Might As Well...The Persuasions Sing Grateful Dead
2000. Sunday Morning Soul
2000. Blue's Big Musical Movie
2002. The Persuasions Sing The Beatles
2003. A Cappella Dreams
2006. Collectables Classics (2006; Collectables [Box set containing all 1971, 1972, & 1977 releases])
2008. Essential Recordings: A Cappella Soul (2008; Rounder [1979-86 Rounder/Flying Fish/Bullseye Blues compilation])
Приватный:
Нет (DHT включён)
Размер:
628.41 Мб (658,933,359 байт) » файлов: 40
Участники:
0 раздают, 0 качают (0 участников всего)
Внешние участники:
5 раздают, 1 качают (6 участников всего) [ Обновить ]
No seeders - write a personal message to user M0p94ok. Нет сидеров - пишите личное сообщение пользователю M0p94ok.
03:40
48
Нет комментариев. Ваш будет первым!