Вы используете незарегистрированную версию компонента "Вкладки"!

Поиск

(R&B, Soul, Gospel, West African Traditions) VA - Soul to Soul (Wilson Pickett, Ike & Tina Turner, Les McCann & Eddie Harris, Staple Singers, Earl Thomas) - Bonus Original Soundtrack CD - 2004, FLAC (tracks+.cue), lossless

(R&B, Soul, Gospel, West African Traditions) VA - Soul to Soul (Wilson Pickett, Ike & Tina Turner, Les McCann & Eddie Harris, Staple Singers, Earl Thomas) - Bonus Original Soundtrack CD - 2004, FLAC (tracks+.cue), lossless
Треклист:
Soul to Soul - Bonus Original Soundtrack CD
Жанр: R&B, Soul, Gospel, West African Traditions
Страна-производитель диска: Russia
Год издания диска: 2004
Издатель (лейбл): OOO "Никитин" по лицензии "Warner Music"
Номер по каталогу: 4670001544580
Страна: USA / Ghana
Аудиокодек: FLAC (*.flac)
Тип рипа: tracks+.cue
Битрейт аудио: lossless
Продолжительность: 01:02:47
Источник (релизер): duppyb
Наличие сканов в содержимом раздачи: да
Треклист:
1. The Kumasi Drummers
2. Ike & Tina Turner - Soul To Soul
3. Voices Of Harlem – Run, Shaker Life
4. Ishmael Adams & The Damas Choir
5. Les McCann & Eddie Harris with Amoah Azangeo – Hey Jorler
6. The Staple Singers - Are You Sure
7. The Staple Singers - He's Alright
8. Kwa Mensah
9. Ike & Tina Turner - Ooh Poo Pah Doo
10. Ike & Tina Turner - I Smell Trouble
11. Wilson Pickett - In The Midnight Hour
12. Wilson Pickett - Funky Broadway
13. Wilson Pickett - Land Of WOO Dances
14. Voices Of East Harlem - Choose Your Seat And Set Down/Walk All Over Cod's Heaven
15. Earl Thomas - Soul To Soul (2004)
 
Лог создания рипа
Exact Audio Copy V1.0 beta 2 from 29. April 2011
EAC extraction logfile from 31. October 2011, 14:06
Various Artists / Soul to Soul
Used drive : ASUS DRW-24B3LT Adapter: 3 ID: 0
Read mode : Secure
Utilize accurate stream : Yes
Defeat audio cache : Yes
Make use of C2 pointers : No
Read offset correction : 6
Overread into Lead-In and Lead-Out : No
Fill up missing offset samples with silence : Yes
Delete leading and trailing silent blocks : No
Null samples used in CRC calculations : Yes
Used interface : Native Win32 interface for Win NT & 2000
Gap handling : Appended to previous track
Used output format : User Defined Encoder
Selected bitrate : 128 kBit/s
Quality : High
Add ID3 tag : No
Command line compressor : C:\Program Files\Exact Audio Copy\Flac\flac.exe
Additional command line options : -V -8 -T "Genre=%genre%" -T "Artist=%artist%" -T "Title=%title%" -T "Album=%albumtitle%" -T "Date=%year%" -T "Tracknumber=%tracknr%" -T "Comment=%comment%" %source%
TOC of the extracted CD
Track | Start | Length | Start sector | End sector
---------------------------------------------------------
1 | 0:00.00 | 1:13.39 | 0 | 5513
2 | 1:13.39 | 4:20.71 | 5514 | 25084
3 | 5:34.35 | 5:42.34 | 25085 | 50768
4 | 11:16.69 | 2:15.04 | 50769 | 60897
5 | 13:31.73 | 6:59.68 | 60898 | 92390
6 | 20:31.66 | 3:21.08 | 92391 | 107473
7 | 23:52.74 | 1:59.15 | 107474 | 116413
8 | 25:52.14 | 1:12.33 | 116414 | 121846
9 | 27:04.47 | 3:20.02 | 121847 | 136848
10 | 30:24.49 | 6:52.23 | 136849 | 167771
11 | 37:16.72 | 3:05.04 | 167772 | 181650
12 | 40:22.01 | 6:05.33 | 181651 | 209058
13 | 46:27.34 | 5:12.39 | 209059 | 232497
14 | 51:39.73 | 5:21.17 | 232498 | 256589
15 | 57:01.15 | 5:44.02 | 256590 | 282391
Track 1
Filename E:\Various - Soul to Soul (2004)\01. Kumasi Drummers – Untitled Track.wav
Pre-gap length 0:00:02.00
Peak level 88.7 %
Extraction speed 2.5 X
Track quality 100.0 %
Test CRC CC8DA7CC
Copy CRC CC8DA7CC
Cannot be verified as accurate (confidence 3) [49EFB7DF], AccurateRip returned [6F9CCFA6] (AR v2)
Copy OK
Track 2
Filename E:\Various - Soul to Soul (2004)\02. Ike & Tina Turner – Soul to Soul.wav
Peak level 98.8 %
Extraction speed 3.1 X
Track quality 99.9 %
Test CRC 187E3F9B
Copy CRC 187E3F9B
Cannot be verified as accurate (confidence 3) [A5DCBCBA], AccurateRip returned [D7677EE3] (AR v2)
Copy OK
Track 3
Filename E:\Various - Soul to Soul (2004)\03. Voices Of Harlem – Run, Shaker Life.wav
Peak level 93.6 %
Extraction speed 4.4 X
Track quality 100.0 %
Test CRC 9FF84982
Copy CRC 9FF84982
Cannot be verified as accurate (confidence 3) [3122F7A3], AccurateRip returned [EAACF1B4] (AR v2)
Copy OK
Track 4
Filename E:\Various - Soul to Soul (2004)\04. Ishmael Adams & The Damas Choir – Untitled Track.wav
Peak level 98.8 %
Extraction speed 4.1 X
Track quality 100.0 %
Test CRC 55496B20
Copy CRC 55496B20
Cannot be verified as accurate (confidence 3) [96395B1E], AccurateRip returned [0CE355D0] (AR v2)
Copy OK
Track 5
Filename E:\Various - Soul to Soul (2004)\05. Les McCan & Eddie Harris with Amoah Azangeo – Hey Jorler.wav
Peak level 97.4 %
Extraction speed 5.2 X
Track quality 100.0 %
Test CRC 33D22A50
Copy CRC 33D22A50
Cannot be verified as accurate (confidence 3) [727550AD], AccurateRip returned [261BBC93] (AR v2)
Copy OK
Track 6
Filename E:\Various - Soul to Soul (2004)\06. Staple Singers – Are You Sure.wav
Peak level 90.5 %
Extraction speed 5.2 X
Track quality 100.0 %
Test CRC 52C3CCC7
Copy CRC 52C3CCC7
Cannot be verified as accurate (confidence 3) [367EAEB6], AccurateRip returned [211DB648] (AR v2)
Copy OK
Track 7
Filename E:\Various - Soul to Soul (2004)\07. Staple Singers – He's Alright.wav
Peak level 93.3 %
Extraction speed 3.3 X
Track quality 99.9 %
Test CRC 6E429E4B
Copy CRC 6E429E4B
Cannot be verified as accurate (confidence 3) [DC4A26ED], AccurateRip returned [430DF6FC] (AR v2)
Copy OK
Track 8
Filename E:\Various - Soul to Soul (2004)\08. Kwa Mensah – Untitled Track.wav
Peak level 80.8 %
Extraction speed 4.3 X
Track quality 100.0 %
Test CRC 6A013DF7
Copy CRC 6A013DF7
Cannot be verified as accurate (confidence 3) [E8279788], AccurateRip returned [DA52C1D1] (AR v2)
Copy OK
Track 9
Filename E:\Various - Soul to Soul (2004)\09. Ike & Tina Turner – Ooh Poo Pah Doo.wav
Peak level 98.8 %
Extraction speed 5.6 X
Track quality 100.0 %
Test CRC 3D086893
Copy CRC 3D086893
Cannot be verified as accurate (confidence 3) [F9F9A18B], AccurateRip returned [8DF9066C] (AR v2)
Copy OK
Track 10
Filename E:\Various - Soul to Soul (2004)\10. Ike & Tina Turner – I Smell Trouble.wav
Peak level 96.8 %
Extraction speed 5.5 X
Track quality 99.9 %
Test CRC 887EEED0
Copy CRC 887EEED0
Cannot be verified as accurate (confidence 3) [0996AB8D], AccurateRip returned [EBF70C56] (AR v2)
Copy OK
Track 11
Filename E:\Various - Soul to Soul (2004)\11. Wilson Pickett – In the Midnight Hour.wav
Peak level 95.7 %
Extraction speed 6.1 X
Track quality 100.0 %
Test CRC 395C937B
Copy CRC 395C937B
Cannot be verified as accurate (confidence 3) [75221BA6], AccurateRip returned [10F6EF30] (AR v2)
Copy OK
Track 12
Filename E:\Various - Soul to Soul (2004)\12. Wilson Pickett – Funky Broadway.wav
Peak level 96.6 %
Extraction speed 6.9 X
Track quality 100.0 %
Test CRC E97B6064
Copy CRC E97B6064
Cannot be verified as accurate (confidence 3) [8E86EF2A], AccurateRip returned [7AD7B242] (AR v2)
Copy OK
Track 13
Filename E:\Various - Soul to Soul (2004)\13. Wilson Pickett – Land of 1000 Dances.wav
Peak level 90.0 %
Extraction speed 7.1 X
Track quality 100.0 %
Test CRC FDAA8700
Copy CRC FDAA8700
Cannot be verified as accurate (confidence 3) [81730C2B], AccurateRip returned [DEC432BA] (AR v2)
Copy OK
Track 14
Filename E:\Various - Soul to Soul (2004)\14. Voices Of East Harlem – Choose Your Seat and Set Down Walk All Over God's Heaven.wav
Peak level 91.0 %
Extraction speed 7.4 X
Track quality 100.0 %
Test CRC F2A6C035
Copy CRC F2A6C035
Cannot be verified as accurate (confidence 3) [4E9CCF8E], AccurateRip returned [DC5612DC] (AR v2)
Copy OK
Track 15
Filename E:\Various - Soul to Soul (2004)\15. Earl Thomas – Soul to Soul.wav
Peak level 96.3 %
Extraction speed 7.7 X
Track quality 100.0 %
Test CRC 410DF645
Copy CRC 410DF645
Cannot be verified as accurate (confidence 3) [52E6EE0C], AccurateRip returned [448678F7] (AR v2)
Copy OK
No tracks could be verified as accurate
You may have a different pressing from the one(s) in the database
No errors occurred
End of status report
==== Log checksum BA4C0922EFCB7D11A000C212A739E1E252B830ABE732DD3DB272AFB34CA6990E ====
 
Содержание индексной карты (.CUE)
REM DATE 2004
REM DISCID C50EB50F
REM COMMENT "ExactAudioCopy v1.0b2"
CATALOG 0603497032723
PERFORMER "Various Artists"
TITLE "Soul to Soul"
FILE "01. Kumasi Drummers – Untitled Track.wav" WAVE
TRACK 01 AUDIO
TITLE "Untitled Track "
PERFORMER "Kumasi Drummers"
ISRC USAT20401173
INDEX 01 00:00:00
FILE "02. Ike & Tina Turner – Soul to Soul.wav" WAVE
TRACK 02 AUDIO
TITLE "Soul to Soul"
PERFORMER "Ike & Tina Turner"
ISRC USAT20401196
INDEX 01 00:00:00
FILE "03. Voices Of Harlem – Run, Shaker Life.wav" WAVE
TRACK 03 AUDIO
TITLE "Run, Shaker Life"
PERFORMER "Voices Of Harlem"
ISRC USAT20401174
INDEX 01 00:00:00
FILE "04. Ishmael Adams & The Damas Choir – Untitled Track.wav" WAVE
TRACK 04 AUDIO
TITLE "Untitled Track"
PERFORMER "Ishmael Adams & The Damas Choir"
ISRC USAT20401175
INDEX 01 00:00:00
FILE "05. Les McCan & Eddie Harris with Amoah Azangeo – Hey Jorler.wav" WAVE
TRACK 05 AUDIO
TITLE "Hey Jorler"
PERFORMER "Les McCan & Eddie Harris with Amoah Azangeo"
ISRC USAT20401176
INDEX 01 00:00:00
FILE "06. Staple Singers – Are You Sure.wav" WAVE
TRACK 06 AUDIO
TITLE "Are You Sure"
PERFORMER "Staple Singers"
ISRC USAT20401177
INDEX 01 00:00:00
FILE "07. Staple Singers – He's Alright.wav" WAVE
TRACK 07 AUDIO
TITLE "He's Alright"
PERFORMER "Staple Singers"
ISRC USAT20401178
INDEX 01 00:00:00
FILE "08. Kwa Mensah – Untitled Track.wav" WAVE
TRACK 08 AUDIO
TITLE "Untitled Track "
PERFORMER "Kwa Mensah"
ISRC USAT20401183
INDEX 01 00:00:00
FILE "09. Ike & Tina Turner – Ooh Poo Pah Doo.wav" WAVE
TRACK 09 AUDIO
TITLE "Ooh Poo Pah Doo"
PERFORMER "Ike & Tina Turner"
ISRC USAT20401193
INDEX 01 00:00:00
FILE "10. Ike & Tina Turner – I Smell Trouble.wav" WAVE
TRACK 10 AUDIO
TITLE "I Smell Trouble"
PERFORMER "Ike & Tina Turner"
ISRC USAT20401184
INDEX 01 00:00:00
FILE "11. Wilson Pickett – In the Midnight Hour.wav" WAVE
TRACK 11 AUDIO
TITLE "In the Midnight Hour"
PERFORMER "Wilson Pickett"
ISRC USAT20401189
INDEX 01 00:00:00
FILE "12. Wilson Pickett – Funky Broadway.wav" WAVE
TRACK 12 AUDIO
TITLE "Funky Broadway"
PERFORMER "Wilson Pickett"
ISRC USAT20401185
INDEX 01 00:00:00
FILE "13. Wilson Pickett – Land of 1000 Dances.wav" WAVE
TRACK 13 AUDIO
TITLE "Land of 1000 Dances"
PERFORMER "Wilson Pickett"
ISRC USAT20401194
INDEX 01 00:00:00
FILE "14. Voices Of East Harlem – Choose Your Seat and Set Down Walk All Over God's Heaven.wav" WAVE
TRACK 14 AUDIO
TITLE "Choose Your Seat and Set Down Walk All Over God's Heaven"
PERFORMER "Voices Of East Harlem"
ISRC USAT20401195
INDEX 01 00:00:00
FILE "15. Earl Thomas – Soul to Soul.wav" WAVE
TRACK 15 AUDIO
TITLE "Soul to Soul"
PERFORMER "Earl Thomas"
ISRC Y99980005077
INDEX 01 00:00:00
 
Доп. информация
Об альбоме (сборнике) смотреть здесь
Сканы те же, что и в раздаче DVD за исключением диска.
Any questions - support@pro-jazz.com.
Есть вопросы - support@pro-jazz.com
01:22
271
Нет комментариев. Ваш будет первым!