Поиск

(R&B, Soul) [CD] The Delfonics - Sound Of Sexy Soul (1969) - 2001, FLAC (image+.cue), lossless

(R&B, Soul) [CD] The Delfonics - Sound Of Sexy Soul (1969) - 2001, FLAC (image+.cue), lossless
Треклист:
The Delfonics - Sound Of Sexy Soul (1969) Жанр: R&B, Soul
Носитель: CD
Год издания: 2001
Издатель (лейбл): Buddha Records
Номер по каталогу: 74465 99805 2
Аудиокодек: FLAC (*.flac)
Тип рипа: image+.cue
Битрейт аудио: lossless
Продолжительность: 29:19
Rip by M@ce
Наличие сканов в содержимом раздачи: да
Треклист:
01. Ready Or Not Here I Come (Can't Hide From Love) (2:03)
02. Let It Be Me (2:24)
03. Hot Dog (I Love You So) (2:19)
04. You Can't Be Loving Him (2:06)
05. Ain't That Peculiar (1:49)
06. With These Hands (2:16)
07. Face It Girl, It's Over (3:00)
08. Going Out Of My Head (2:09)
09. My New Love (2:51)
10. Somebody Loves You (3:21)
11. Scarborough Fair (2:21)
12. Everytime I See My Baby (2:42)
 
 
AllMusic Review by Lindsay Planer
The Sound of Sexy Soul is the Delfonics' second long-player and builds upon the notable impact of their first, La La Means I Love You. This album provides the trio a platform for their next batch of crossover soul/pop hits, including "Somebody Loves You" and "Ready or Not Here I Come (Can't Hide From Love)." The developing Philly soul revolution which was being led by writer/musician/producer and arranger Thom Bell is increasingly evident throughout this disc. Incorporating lush tempos, potent string arrangements, as well as the Delfonics' dense vocal blend is a triumphant combination not only for Bell, but all devotees of Philadelphia's embryonic smooth-grooves movement. Evenly divided between six originals and six cover tunes, The Sound of Sexy Soul is perhaps the most accurate name an album of this nature could have. While the title might insinuate a collection of slow ballads, that is only a portion of the soul and pop crossover magic. There is certainly nothing leisurely about the original "You Can't Be Loving Him" or the feisty rendition of "Ain't That Peculiar," which happily suffers from an undeniable Motown groove, propelled by a familiar-sounding rhythm not too far removed from its Motor City roots. Among the other cover versions that the Delfonics reinvent for themselves on this LP are a psychedelic reading of "Scarborough Fair" and a mid-tempo reworking of "Going out of My Head." As with their previous album, the songwriting team of Thom Bell and William Hart scored not only the aforementioned hits -- "Ready or Not Here I Come (Can't Hide From Love)" and "Somebody Loves You" -- but several hidden gems, including "Everytime I See My Baby" and "My New Love." These tunes are textbook Philly soul and include trademark muted brass and string arrangements that support without impeding the trio's timeless vocal blend. In essence, they are able to delineate as well as personify the combination of influences that Bell and company drew upon in their quest to create a whole new soul music subgenre. The 2001 Buddha Records reissue marks the first time that The Sound of Sexy Soul has been available on CD. It boasts nearly perfect sound and a four-panel liner notes foldout which includes a historical essay from noted musicologist Bill Dahl as well as a reproduction of the original LP jacket.

 
Лог создания рипа
Exact Audio Copy V1.0 beta 6 from 9. April 2015
EAC extraction logfile from 12. October 2015, 20:05
The Delfonics / Sound of Sexy Soul
Used drive : Memorex 52MAXX 3252AJ1 Adapter: 1 ID: 1
Read mode : Secure
Utilize accurate stream : Yes
Defeat audio cache : Yes
Make use of C2 pointers : No
Read offset correction : 6
Overread into Lead-In and Lead-Out : No
Fill up missing offset samples with silence : Yes
Delete leading and trailing silent blocks : No
Null samples used in CRC calculations : Yes
Used interface : Native Win32 interface for Win NT & 2000
Used output format : User Defined Encoder
Selected bitrate : 1024 kBit/s
Quality : High
Add ID3 tag : No
Command line compressor : C:\Program Files (x86)\Exact Audio Copy\Flac\flac.exe
Additional command line options : %ishigh%-V -p -l 12 -b 4096 -m -e -r 8%ishigh%%islow%-5%islow% --replay-gain -T "ARTIST=%artist%" -T "ALBUM=%albumtitle%" -T "TITLE=%title%" -T "DATE=%year%" -T "TRACKNUMBER=%tracknr%" -T "GENRE=%genre%" -T "ENSEMBLE=%albuminterpret%" -T "ALBUMARTIST=%albumartist%" -T "COMPOSER=%albumcomposer%" -T "DISCNUMBER=%cdnumber%" -T "TOTALDISCS=%totalcds%" -T "TOTALTRACKS=%numtracks%" -T "SOURCEMEDIA=CD" -T "COMMENT=%comment%" %hascover%-T "PICTURE=%coverfile%"%hascover% %source%
TOC of the extracted CD
Track | Start | Length | Start sector | End sector
---------------------------------------------------------
1 | 0:00.00 | 2:02.45 | 0 | 9194
2 | 2:02.45 | 2:23.65 | 9195 | 19984
3 | 4:26.35 | 2:19.12 | 19985 | 30421
4 | 6:45.47 | 2:05.45 | 30422 | 39841
5 | 8:51.17 | 1:48.73 | 39842 | 48014
6 | 10:40.15 | 2:15.57 | 48015 | 58196
7 | 12:55.72 | 2:59.43 | 58197 | 71664
8 | 15:55.40 | 2:08.62 | 71665 | 81326
9 | 18:04.27 | 2:50.70 | 81327 | 94146
10 | 20:55.22 | 3:21.30 | 94147 | 109251
11 | 24:16.52 | 2:20.63 | 109252 | 119814
12 | 26:37.40 | 2:41.42 | 119815 | 131931
Range status and errors
Selected range
Filename C:\Users\M@ce\Music\Archives\Rips\The Delfonics - Sound of Sexy Soul.wav
Peak level 100.0 %
Extraction speed 8.2 X
Range quality 100.0 %
Test CRC E14B970C
Copy CRC E14B970C
Copy OK
No errors occurred
AccurateRip summary
Track 1 accurately ripped (confidence 2) [1708CAA3] (AR v2)
Track 2 accurately ripped (confidence 2) [029C1C16] (AR v2)
Track 3 accurately ripped (confidence 2) [EB3A45B8] (AR v2)
Track 4 accurately ripped (confidence 2) [AF003DBE] (AR v2)
Track 5 accurately ripped (confidence 2) [B7BA1350] (AR v2)
Track 6 accurately ripped (confidence 2) [396D075E] (AR v2)
Track 7 accurately ripped (confidence 2) [7CFC3165] (AR v2)
Track 8 accurately ripped (confidence 2) [4537DFC7] (AR v1)
Track 9 accurately ripped (confidence 2) [C9FBBF83] (AR v2)
Track 10 accurately ripped (confidence 2) [18219EE2] (AR v2)
Track 11 accurately ripped (confidence 2) [A4C358C9] (AR v2)
Track 12 accurately ripped (confidence 2) [E7568BE1] (AR v2)
All tracks accurately ripped
End of status report
---- CUETools DB Plugin V2.1.6
[CTDB TOCID: rqrnXsrMLrBti36FriO2ixL8P9I-] found
Submit result: rqrnXsrMLrBti36FriO2ixL8P9I- has been confirmed
Track | CTDB Status
1 | (8/8) Accurately ripped
2 | (8/8) Accurately ripped
3 | (8/8) Accurately ripped
4 | (8/8) Accurately ripped
5 | (8/8) Accurately ripped
6 | (8/8) Accurately ripped
7 | (8/8) Accurately ripped
8 | (8/8) Accurately ripped
9 | (8/8) Accurately ripped
10 | (8/8) Accurately ripped
11 | (8/8) Accurately ripped
12 | (8/8) Accurately ripped
==== Log checksum 99B2A2FDF3D9363B1A50D8D8409714544516E860CF9C3AB596E9C9561506724F ====
 
Содержание индексной карты (.CUE)
REM GENRE Soul
REM DATE 1969
REM DISCID AD06DF0C
REM COMMENT "ExactAudioCopy v1.0b6"
PERFORMER "The Delfonics"
TITLE "Sound Of Sexy Soul"
FILE "The Delfonics - Sound Of Sexy Soul.flac" WAVE
TRACK 01 AUDIO
TITLE "Ready Or Not Here I Come (Can't Hide From Love)"
PERFORMER "The Delfonics"
INDEX 01 00:00:00
TRACK 02 AUDIO
TITLE "Let It Be Me"
PERFORMER "The Delfonics"
INDEX 00 01:59:35
INDEX 01 02:02:45
TRACK 03 AUDIO
TITLE "Hot Dog (I Love You So)"
PERFORMER "The Delfonics"
INDEX 00 04:23:35
INDEX 01 04:26:35
TRACK 04 AUDIO
TITLE "You Can't Be Loving Him"
PERFORMER "The Delfonics"
INDEX 00 06:42:50
INDEX 01 06:45:47
TRACK 05 AUDIO
TITLE "Ain't That Peculiar"
PERFORMER "The Delfonics"
INDEX 00 08:48:27
INDEX 01 08:51:17
TRACK 06 AUDIO
TITLE "With These Hands"
PERFORMER "The Delfonics"
INDEX 00 10:37:20
INDEX 01 10:40:15
TRACK 07 AUDIO
TITLE "Face It Girl, It's Over"
PERFORMER "The Delfonics"
INDEX 00 12:52:50
INDEX 01 12:55:72
TRACK 08 AUDIO
TITLE "Going Out Of My Head"
PERFORMER "The Delfonics"
INDEX 00 15:52:20
INDEX 01 15:55:40
TRACK 09 AUDIO
TITLE "My New Love"
PERFORMER "The Delfonics"
INDEX 00 18:00:65
INDEX 01 18:04:27
TRACK 10 AUDIO
TITLE "Somebody Loves You"
PERFORMER "The Delfonics"
INDEX 00 20:52:35
INDEX 01 20:55:22
TRACK 11 AUDIO
TITLE "Scarborough Fair"
PERFORMER "The Delfonics"
INDEX 00 24:13:65
INDEX 01 24:16:52
TRACK 12 AUDIO
TITLE "Everytime I See My Baby"
PERFORMER "The Delfonics"
INDEX 00 26:34:12
INDEX 01 26:37:40
Приватный:
Нет (DHT включён)
Размер:
203.55 Мб (213,439,194 байт) » файлов: 10
Участники:
0 раздают, 0 качают (0 участников всего)
Внешние участники:
3 раздают, 1 качают (4 участников всего) [ Обновить ]
Есть вопросы - пишите личное сообщение пользователю M0p94ok.
14:42
96
Нет комментариев. Ваш будет первым!