Поиск

(R&B / Soul) [CD] Barbara Mason - Give Me Your Love - 1972, FLAC (tracks+.cue), lossless

(R&B / Soul) [CD] Barbara Mason - Give Me Your Love - 1972, FLAC (tracks+.cue), lossless
Треклист:
Barbara Mason / Give Me Your Love (1972)
Жанр: R&B / Soul
Носитель: CD
Страна-производитель диска (релиза): USA
Год издания: 2009
Издатель (лейбл): Soul Brother Records
Номер по каталогу: CD SBCS 31
Страна исполнителя (группы): USA
Аудиокодек: FLAC (*.flac)
Тип рипа: tracks+.cue
Битрейт аудио: lossless
Продолжительность: 0:42:27
Источник (релизер): найдено в интеренете
Наличие сканов в содержимом раздачи: да
Треклист:
01 Yes I'm Ready
02 When I Fall In Love
03 Everything I Own
04 Let Me In Your Life
05 Bed And Board
06 Who Will You Hurt Next
07 You Can Be With The One You Don't Love
08 Out Of This World
09 Give Me Your Love
10 Yes I'm Ready
 
Лог создания рипа
Exact Audio Copy V0.99 prebeta 5 from 4. May 2009
EAC extraction logfile from 17. June 2010, 20:23
Barbara Mason / Give Me Your Love
Used drive : TSSTcorpCDDVDW SH-S223F Adapter: 3 ID: 0
Read mode : Secure
Utilize accurate stream : Yes
Defeat audio cache : Yes
Make use of C2 pointers : No
Read offset correction : 6
Overread into Lead-In and Lead-Out : No
Fill up missing offset samples with silence : Yes
Delete leading and trailing silent blocks : No
Null samples used in CRC calculations : Yes
Used interface : Native Win32 interface for Win NT & 2000
Gap handling : Appended to previous track
Used output format : User Defined Encoder
Selected bitrate : 192 kBit/s
Quality : High
Add ID3 tag : No
Command line compressor : D:\Program Files\Exact Audio Copy\flac-1.1.4-win\bin\flac.exe
Additional command line options : -V -8 -T "artist=%a" -T "title=%t" -T "album=%g" -T "date=%y" -T "tracknumber=%n" -T "genre=%m" %s
TOC of the extracted CD
Track | Start | Length | Start sector | End sector
---------------------------------------------------------
1 | 0:00.00 | 9:04.36 | 0 | 40835
2 | 9:04.36 | 4:06.47 | 40836 | 59332
3 | 13:11.08 | 3:55.73 | 59333 | 77030
4 | 17:07.06 | 3:54.62 | 77031 | 94642
5 | 21:01.68 | 3:31.32 | 94643 | 110499
6 | 24:33.25 | 3:23.38 | 110500 | 125762
7 | 27:56.63 | 4:23.68 | 125763 | 145555
8 | 32:20.56 | 3:30.31 | 145556 | 161336
9 | 35:51.12 | 3:00.35 | 161337 | 174871
10 | 38:51.47 | 3:34.70 | 174872 | 190991
Track 1
Filename E:\EAC\Barbara Mason - Give Me Your Love - CD - 1972 (2009Re) - FLAC\01. Barbara Mason - Yes I'm Ready.wav
Pre-gap length 0:00:02.00
Peak level 100.0 %
Track quality 100.0 %
Test CRC 2D0CE9D2
Copy CRC 2D0CE9D2
Track not present in AccurateRip database
Copy OK
Track 2
Filename E:\EAC\Barbara Mason - Give Me Your Love - CD - 1972 (2009Re) - FLAC\02. Barbara Mason - When I Fall In Love.wav
Pre-gap length 0:00:01.94
Peak level 100.0 %
Track quality 100.0 %
Test CRC 4687C277
Copy CRC 4687C277
Track not present in AccurateRip database
Copy OK
Track 3
Filename E:\EAC\Barbara Mason - Give Me Your Love - CD - 1972 (2009Re) - FLAC\03. Barbara Mason - Everything I Own.wav
Pre-gap length 0:00:01.94
Peak level 91.7 %
Track quality 100.0 %
Test CRC 0A0A18AD
Copy CRC 0A0A18AD
Track not present in AccurateRip database
Copy OK
Track 4
Filename E:\EAC\Barbara Mason - Give Me Your Love - CD - 1972 (2009Re) - FLAC\04. Barbara Mason - Let Me In Your Life.wav
Pre-gap length 0:00:01.94
Peak level 97.1 %
Track quality 100.0 %
Test CRC 964E7961
Copy CRC 964E7961
Track not present in AccurateRip database
Copy OK
Track 5
Filename E:\EAC\Barbara Mason - Give Me Your Love - CD - 1972 (2009Re) - FLAC\05. Barbara Mason - Bed And Board.wav
Pre-gap length 0:00:01.94
Peak level 99.8 %
Track quality 100.0 %
Test CRC A2033356
Copy CRC A2033356
Track not present in AccurateRip database
Copy OK
Track 6
Filename E:\EAC\Barbara Mason - Give Me Your Love - CD - 1972 (2009Re) - FLAC\06. Barbara Mason - Who Will You Hurt Next.wav
Pre-gap length 0:00:01.94
Peak level 100.0 %
Track quality 100.0 %
Test CRC E40C5D19
Copy CRC E40C5D19
Track not present in AccurateRip database
Copy OK
Track 7
Filename E:\EAC\Barbara Mason - Give Me Your Love - CD - 1972 (2009Re) - FLAC\07. Barbara Mason - You Can Be With The One You Don't Love.wav
Pre-gap length 0:00:01.94
Peak level 89.1 %
Track quality 100.0 %
Test CRC D87756AD
Copy CRC D87756AD
Track not present in AccurateRip database
Copy OK
Track 8
Filename E:\EAC\Barbara Mason - Give Me Your Love - CD - 1972 (2009Re) - FLAC\08. Barbara Mason - Out Of This World.wav
Pre-gap length 0:00:01.94
Peak level 99.8 %
Track quality 100.0 %
Test CRC 8F5D45AC
Copy CRC 8F5D45AC
Track not present in AccurateRip database
Copy OK
Track 9
Filename E:\EAC\Barbara Mason - Give Me Your Love - CD - 1972 (2009Re) - FLAC\09. Barbara Mason - Give Me Your Love.wav
Pre-gap length 0:00:01.94
Peak level 99.8 %
Track quality 100.0 %
Test CRC 3F85FFCC
Copy CRC 3F85FFCC
Track not present in AccurateRip database
Copy OK
Track 10
Filename E:\EAC\Barbara Mason - Give Me Your Love - CD - 1972 (2009Re) - FLAC\10. Barbara Mason - Yes I'm Ready.wav
Pre-gap length 0:00:01.94
Peak level 83.8 %
Track quality 100.0 %
Test CRC 9493CC51
Copy CRC 9493CC51
Track not present in AccurateRip database
Copy OK
None of the tracks are present in the AccurateRip database
No errors occurred
End of status report
 
Содержание индексной карты (.CUE)
REM GENRE Soul
REM DATE 1972
REM DISCID 8909F20A
REM COMMENT "ExactAudioCopy v0.99pb5"
FILE "01 Yes I'm Ready.wav" WAVE
TRACK 01 AUDIO
INDEX 01 00:00:00
TRACK 02 AUDIO
INDEX 00 09:02:40
FILE "02 When I Fall In Love.wav" WAVE
INDEX 01 00:00:00
TRACK 03 AUDIO
INDEX 00 04:04:51
FILE "03 Everything I Own.wav" WAVE
INDEX 01 00:00:00
TRACK 04 AUDIO
INDEX 00 03:54:02
FILE "04 Let Me In Your Life.wav" WAVE
INDEX 01 00:00:00
TRACK 05 AUDIO
INDEX 00 03:52:66
FILE "05 Bed And Board.wav" WAVE
INDEX 01 00:00:00
TRACK 06 AUDIO
INDEX 00 03:29:36
FILE "06 Who Will You Hurt Next.wav" WAVE
INDEX 01 00:00:00
TRACK 07 AUDIO
INDEX 00 03:21:42
FILE "07 You Can Be With The One You Don't Love.wav" WAVE
INDEX 01 00:00:00
TRACK 08 AUDIO
INDEX 00 04:21:72
FILE "08 Out Of This World.wav" WAVE
INDEX 01 00:00:00
TRACK 09 AUDIO
INDEX 00 03:28:35
FILE "09 Give Me Your Love.wav" WAVE
INDEX 01 00:00:00
TRACK 10 AUDIO
INDEX 00 02:58:39
FILE "10 Yes I'm Ready.wav" WAVE
INDEX 01 00:00:00
Приватный:
Нет (DHT включён)
Размер:
265.03 Мб (277,905,945 байт) » файлов: 20
Участники:
0 раздают, 0 качают (0 участников всего)
Внешние участники:
2 раздают, 1 качают (3 участников всего) [ Обновить ]
Есть вопросы - пишите личное сообщение пользователю M0p94ok.
05:30
97
Нет комментариев. Ваш будет первым!