Поиск

(Qawwali, Etno-Jazz) Nusrat Fateh Ali Khan - Allah Hoo Allah Hoo, APE (image + .cue), lossless

Треклист:
Nusrat Fateh Ali Khan - Allah Hoo Allah Hoo
Страна: Pakistan
Жанр: Qawwali, Etno-Jazz
Год выпуска:
Формат: APE (image + .cue)
Битрейт аудио: lossless
Продолжительность: 53:05
Трэклист:
1. Allah Hoo Allah Hoo 14:15
2. Soorat Teri Shahe Umang Allah Ki Tasveer Hai 10:59
3. Ya Haiyyo Ya Qayoom 27:52
 
скрытый текст
Exact Audio Copy V0.99 prebeta 1 from 25. May 2007
Отчёт EAC об извлечении, выполненном 16. апреля 2008, 22:02
Nusrat Fateh Ali Khan / Allah Hoo Allah Hoo
Дисковод: TSSTcorpDVD+-RW TS-L632D Adapter: 3 ID: 0
Режим чтения : Достоверность
Использование точного потока : Да
Отключение кэша аудио : Да
Использование указателей C2 : Нет
Коррекция смещения при чтении : 6
Способность читать области Lead-in и Lead-out : Нет
Заполнение пропущенных сэмплов тишиной : Да
Удаление блоков с тишиной в начале и конце : Нет
Интерфейс : Встроенный Win32-интерфейс для Win NT/2000
Выходной формат : Внутренние WAV-операции
Формат сэмплов : 44.100 Гц; 16 бит; стерео
TOC извлечённого CD
Трек | Старт | Длительность | Начальный сектор | Конечный сектор
---------------------------------------------------------------------
1 | 0:00.00 | 14:14.20 | 0 | 64069
2 | 14:14.20 | 10:56.70 | 64070 | 113339
3 | 25:11.15 | 27:53.60 | 113340 | 238874
Характеристики диапазона извлечения и сообщения об ошибках
Выбранный диапазон
Имя файла C:\Documents and Settings\Ultra Electronic\Мои документы\Azureus Downloads\Nusrat Fateh Ali Khan - Allah Hoo Allah Hoo.wav
Пиковый уровень 100.0 %
Качество диапазона 100.0 %
CRC теста 5A6BE52C
CRC копии 5A6BE52C
Копирование... OK
Ошибок не произошло
00:59
334
Нет комментариев. Ваш будет первым!