Поиск

(psychedelic, folk-rock, jazz-funk, world) VA - Psych Funk 101 - 2009, FLAC (tracks+.cue), lossless

(psychedelic, folk-rock, jazz-funk, world) VA - Psych Funk 101 - 2009, FLAC (tracks+.cue), lossless
Треклист:
Psych Funk 101
Жанр: psychedelic, jazz-funk, folk-rock, world
Страна-производитель диска: US
Год издания: 2009
Издатель (лейбл): World Psychedelic Funk Classics
Номер по каталогу: WPFC101
Аудиокодек: FLAC (*.flac)
Тип рипа: tracks+.cue
Битрейт аудио: lossless
Продолжительность: 01:12:33
Источник (релизер): What.cd
Наличие сканов в содержимом раздачи: нет
Треклист:
01. Husnu Ozkartal Orkestrasi - Su Derenin Sulari
02. Kukumbas - Respect
03. Mulatu Astatke Feat Belaynesh Wubante And Assegedetch Asfaw - Alemiye
04. Kim Sun - The Man Who Must Leave
05. Petalouda - What You Can Do In Your Life
06. Mehr Pooya - Doe Pajereh / Ghabileh-ye Lily
07. Staff Carpenborg And The Electric Corona - All Men Shall Be Brothers Of Ludwig
08. Group, The - The Feed-back
09. Armando Sciascia - Circuito Chiuso
10. Wadih Essafi - Aandak Baharia Ya Rayess
11. Omar Khorshid - Rakset El Fadaa
12. Metin H. Alatli - Mevlana Boyle Dede
13. George Garanian With Melodiya Jazz Ensemble, The - The Big Search
14. Eskaton - Dagon
 
Лог создания рипа
X Lossless Decoder version 20090930 (110.0)
XLD extraction logfile from 2009-10-24 16:24:22 -0600
Various Artists / Psych Funk 101 (1968-1975)
Used drive : MATSHITA DVD-R UJ-857 (revision HAE4)
Use cdparanoia mode : YES (CDParanoia III 10.2 engine)
Disable audio cache : OK for the drive with cache less than 2750KB
Make use of C2 pointers : NO
Read offset correction : 102
Max retry count : 100
TOC of the extracted CD
Track | Start | Length | Start sector | End sector
---------------------------------------------------------
1 | 00:00:00 | 03:58:17 | 0 | 17866
2 | 03:58:17 | 03:58:02 | 17867 | 35718
3 | 07:56:19 | 02:37:68 | 35719 | 47561
4 | 10:34:12 | 07:42:14 | 47562 | 82225
5 | 18:16:26 | 03:57:43 | 82226 | 100043
6 | 22:13:69 | 02:46:43 | 100044 | 112536
7 | 25:00:37 | 05:15:29 | 112537 | 136190
8 | 30:15:66 | 06:53:72 | 136191 | 167237
9 | 37:09:63 | 03:36:22 | 167238 | 183459
10 | 40:46:10 | 07:01:35 | 183460 | 215069
11 | 47:47:45 | 07:47:12 | 215070 | 250106
12 | 55:34:57 | 03:27:00 | 250107 | 265631
13 | 59:01:57 | 03:34:11 | 265632 | 281692
14 | 62:35:68 | 09:57:01 | 281693 | 326468
Track 01
Filename : /Users/calvingerus/Music/01 Husnu Ozkartal Orkestrasi - Su Derenin Sulari.flac
CRC32 hash (test run) : 74ACE07E
CRC32 hash : 74ACE07E
CRC32 hash (skip zero) : B2F42991
AccurateRip signature : 3A2B40E6
->Track not present in AccurateRip database.
Statistics
Read error : 0
Skipped (treated as error) : 0
Edge jitter error (maybe fixed) : 0
Atom jitter error (maybe fixed) : 0
Drift error (maybe fixed) : 0
Dropped bytes error (maybe fixed) : 0
Duplicated bytes error (maybe fixed) : 0
Inconsistency in error sectors : 0
Track 02
Filename : /Users/calvingerus/Music/02 Kukumbas - Respect.flac
CRC32 hash (test run) : 131CA8C6
CRC32 hash : 131CA8C6
CRC32 hash (skip zero) : 2AB7B3D2
AccurateRip signature : B33ECEFE
->Track not present in AccurateRip database.
Statistics
Read error : 0
Skipped (treated as error) : 0
Edge jitter error (maybe fixed) : 0
Atom jitter error (maybe fixed) : 0
Drift error (maybe fixed) : 0
Dropped bytes error (maybe fixed) : 0
Duplicated bytes error (maybe fixed) : 0
Inconsistency in error sectors : 0
Track 03
Filename : /Users/calvingerus/Music/03 Mulatu Astatke Feat Belaynesh Wubante & Assegedetch Asfaw - Alemiye.flac
CRC32 hash (test run) : 5A432CAC
CRC32 hash : 5A432CAC
CRC32 hash (skip zero) : BBBBD3B4
AccurateRip signature : 33648411
->Track not present in AccurateRip database.
Statistics
Read error : 0
Skipped (treated as error) : 0
Edge jitter error (maybe fixed) : 0
Atom jitter error (maybe fixed) : 0
Drift error (maybe fixed) : 0
Dropped bytes error (maybe fixed) : 0
Duplicated bytes error (maybe fixed) : 0
Inconsistency in error sectors : 0
Track 04
Filename : /Users/calvingerus/Music/04 Kim Sun - The Man Who Must Leave.flac
CRC32 hash (test run) : FA7FE1AC
CRC32 hash : FA7FE1AC
CRC32 hash (skip zero) : F12D25EC
AccurateRip signature : D9B83328
->Track not present in AccurateRip database.
Statistics
Read error : 0
Skipped (treated as error) : 0
Edge jitter error (maybe fixed) : 0
Atom jitter error (maybe fixed) : 0
Drift error (maybe fixed) : 0
Dropped bytes error (maybe fixed) : 0
Duplicated bytes error (maybe fixed) : 0
Inconsistency in error sectors : 0
Track 05
Filename : /Users/calvingerus/Music/05 Petalouda - What You Can Do In Your Life.flac
CRC32 hash (test run) : 804EA144
CRC32 hash : 804EA144
CRC32 hash (skip zero) : 3400881D
AccurateRip signature : B50BED32
->Track not present in AccurateRip database.
Statistics
Read error : 0
Skipped (treated as error) : 0
Edge jitter error (maybe fixed) : 0
Atom jitter error (maybe fixed) : 0
Drift error (maybe fixed) : 0
Dropped bytes error (maybe fixed) : 0
Duplicated bytes error (maybe fixed) : 0
Inconsistency in error sectors : 0
Track 06
Filename : /Users/calvingerus/Music/06 Mehrpooya - Ghabileh-Ye Lily.flac
CRC32 hash (test run) : 53A10464
CRC32 hash : 53A10464
CRC32 hash (skip zero) : 8F2DD42E
AccurateRip signature : 206F6A0E
->Track not present in AccurateRip database.
Statistics
Read error : 0
Skipped (treated as error) : 0
Edge jitter error (maybe fixed) : 0
Atom jitter error (maybe fixed) : 0
Drift error (maybe fixed) : 0
Dropped bytes error (maybe fixed) : 0
Duplicated bytes error (maybe fixed) : 0
Inconsistency in error sectors : 0
Track 07
Filename : /Users/calvingerus/Music/07 Staff Carpenborg And Electric Corona - All Men Shall Be Brothers Of Ludwig.flac
CRC32 hash (test run) : 2C554560
CRC32 hash : 2C554560
CRC32 hash (skip zero) : F29318FB
AccurateRip signature : D7E19848
->Track not present in AccurateRip database.
Statistics
Read error : 0
Skipped (treated as error) : 0
Edge jitter error (maybe fixed) : 0
Atom jitter error (maybe fixed) : 0
Drift error (maybe fixed) : 0
Dropped bytes error (maybe fixed) : 0
Duplicated bytes error (maybe fixed) : 0
Inconsistency in error sectors : 0
Track 08
Filename : /Users/calvingerus/Music/08 Group - The Feed-Back.flac
CRC32 hash (test run) : DAAFCA99
CRC32 hash : DAAFCA99
CRC32 hash (skip zero) : 007E1A11
AccurateRip signature : 77177C4D
->Track not present in AccurateRip database.
Statistics
Read error : 0
Skipped (treated as error) : 0
Edge jitter error (maybe fixed) : 0
Atom jitter error (maybe fixed) : 0
Drift error (maybe fixed) : 0
Dropped bytes error (maybe fixed) : 0
Duplicated bytes error (maybe fixed) : 0
Inconsistency in error sectors : 0
Track 09
Filename : /Users/calvingerus/Music/09 Armando Sciascia - Circuito Chiuso.flac
CRC32 hash (test run) : 2229E907
CRC32 hash : 2229E907
CRC32 hash (skip zero) : 6999DAF3
AccurateRip signature : 564F911B
->Track not present in AccurateRip database.
Statistics
Read error : 0
Skipped (treated as error) : 0
Edge jitter error (maybe fixed) : 0
Atom jitter error (maybe fixed) : 0
Drift error (maybe fixed) : 0
Dropped bytes error (maybe fixed) : 0
Duplicated bytes error (maybe fixed) : 0
Inconsistency in error sectors : 0
Track 10
Filename : /Users/calvingerus/Music/10 Wadih Essafi - Aandak Baharia Ya Rayess.flac
CRC32 hash (test run) : E18BB0D0
CRC32 hash : E18BB0D0
CRC32 hash (skip zero) : EEF4E9EB
AccurateRip signature : D2576489
->Track not present in AccurateRip database.
Statistics
Read error : 0
Skipped (treated as error) : 0
Edge jitter error (maybe fixed) : 0
Atom jitter error (maybe fixed) : 11
Drift error (maybe fixed) : 0
Dropped bytes error (maybe fixed) : 0
Duplicated bytes error (maybe fixed) : 0
Inconsistency in error sectors : 0
Track 11
Filename : /Users/calvingerus/Music/11 Omar Khorshid - Rakset El Fadaa.flac
CRC32 hash (test run) : C2C3144E
CRC32 hash : C2C3144E
CRC32 hash (skip zero) : 8EEB514B
AccurateRip signature : 627A92D4
->Track not present in AccurateRip database.
Statistics
Read error : 0
Skipped (treated as error) : 0
Edge jitter error (maybe fixed) : 0
Atom jitter error (maybe fixed) : 0
Drift error (maybe fixed) : 0
Dropped bytes error (maybe fixed) : 0
Duplicated bytes error (maybe fixed) : 0
Inconsistency in error sectors : 0
Track 12
Filename : /Users/calvingerus/Music/12 Metin H Alatli - Mevlana Boyle Dede.flac
CRC32 hash (test run) : 80643C8A
CRC32 hash : 80643C8A
CRC32 hash (skip zero) : 16E734E7
AccurateRip signature : 279AAF26
->Track not present in AccurateRip database.
Statistics
Read error : 0
Skipped (treated as error) : 0
Edge jitter error (maybe fixed) : 0
Atom jitter error (maybe fixed) : 0
Drift error (maybe fixed) : 0
Dropped bytes error (maybe fixed) : 0
Duplicated bytes error (maybe fixed) : 0
Inconsistency in error sectors : 0
Track 13
Filename : /Users/calvingerus/Music/13 George Garanian With The Melodiya Jazz Ensemble - The Big Search.flac
CRC32 hash (test run) : 83D8157A
CRC32 hash : 83D8157A
CRC32 hash (skip zero) : 75508ACB
AccurateRip signature : 9245FECF
->Track not present in AccurateRip database.
Statistics
Read error : 0
Skipped (treated as error) : 0
Edge jitter error (maybe fixed) : 0
Atom jitter error (maybe fixed) : 0
Drift error (maybe fixed) : 0
Dropped bytes error (maybe fixed) : 0
Duplicated bytes error (maybe fixed) : 0
Inconsistency in error sectors : 0
Track 14
Filename : /Users/calvingerus/Music/14 Eskaton - Dagon.flac
CRC32 hash (test run) : 85E3E60B
CRC32 hash : 85E3E60B
CRC32 hash (skip zero) : 7A32FAC2
AccurateRip signature : 4A886BD5
->Track not present in AccurateRip database.
Statistics
Read error : 0
Skipped (treated as error) : 0
Edge jitter error (maybe fixed) : 0
Atom jitter error (maybe fixed) : 0
Drift error (maybe fixed) : 0
Dropped bytes error (maybe fixed) : 0
Duplicated bytes error (maybe fixed) : 0
Inconsistency in error sectors : 0
No errors occurred
End of status report
 
Содержание индексной карты (.CUE)
PERFORMER "Various Artists"
TITLE "Psych Funk 101"
FILE "01 - Husnu Ozkartal Orkestrasi - Su Derenin Sulari.flac" WAVE
TRACK 01 AUDIO
TITLE "Su Derenin Sulari"
PERFORMER "Husnu Ozkartal Orkestrasi"
INDEX 01 00:00:00
FILE "02 - Kukumbas - Respect.flac" WAVE
TRACK 02 AUDIO
TITLE "Respect"
PERFORMER "Kukumbas"
INDEX 01 00:00:00
FILE "03 - Mulatu Astatke Feat Belaynesh Wubante And Assegedetch Asfaw - Alemiye.flac" WAVE
TRACK 03 AUDIO
TITLE "Alemiye"
PERFORMER "Mulatu Astatke Feat Belaynesh Wubante & Assegedetch Asfaw"
INDEX 01 00:00:00
FILE "04 - Kim Sun - The Man Who Must Leave.flac" WAVE
TRACK 04 AUDIO
TITLE "The Man Who Must Leave"
PERFORMER "Kim Sun"
INDEX 01 00:00:00
FILE "05 - Petalouda - What You Can Do in Your Life.flac" WAVE
TRACK 05 AUDIO
TITLE "What You Can Do in Your Life"
PERFORMER "Petalouda"
INDEX 01 00:00:00
FILE "06 - Mehr Pooya - Doe Pajereh - Ghabileh-ye Lily.flac" WAVE
TRACK 06 AUDIO
TITLE "Ghabileh-Ye Lily"
PERFORMER "Mehrpooya"
INDEX 01 00:00:00
FILE "07 - Staff Carpenborg And The Electric Corona - All Men Shall Be Brothers of Ludwig.flac" WAVE
TRACK 07 AUDIO
TITLE "All Men Shall Be Brothers of Ludwig"
PERFORMER "Staff Carpenborg And Electric Corona"
INDEX 01 00:00:00
FILE "08 - The Group - The Feed-back.flac" WAVE
TRACK 08 AUDIO
TITLE "The Feed-Back"
PERFORMER "The Group"
INDEX 01 00:00:00
FILE "09 - Armando Sciascia - Circuito Chiuso.flac" WAVE
TRACK 09 AUDIO
TITLE "Circuito Chiuso"
PERFORMER "Armando Sciascia"
INDEX 01 00:00:00
FILE "10 - Wadih Essafi - Aandak Baharia Ya Rayess.flac" WAVE
TRACK 10 AUDIO
TITLE "Aandak Baharia Ya Rayess"
PERFORMER "Wadih Essafi"
INDEX 01 00:00:00
FILE "11 - Omar Khorshid - Rakset El Fadaa.flac" WAVE
TRACK 11 AUDIO
TITLE "Rakset El Fadaa"
PERFORMER "Omar Khorshid"
INDEX 01 00:00:00
FILE "12 - Metin H. Alatli - Mevlana Boyle Dede.flac" WAVE
TRACK 12 AUDIO
TITLE "Mevlana Boyle Dede"
PERFORMER "Metin H. Alatli"
INDEX 01 00:00:00
FILE "13 - George Garanian With The Melodiya Jazz Ensemble - The Big Search.flac" WAVE
TRACK 13 AUDIO
TITLE "The Big Search"
PERFORMER "George Garanian With The Melodiya Jazz Ensemble"
INDEX 01 00:00:00
FILE "14 - Eskaton - Dagon.flac" WAVE
TRACK 14 AUDIO
TITLE "Dagon"
PERFORMER "Eskaton"
INDEX 01 00:00:00
 
Об альбоме (сборнике)
Совершенно безумнейший сборник то ли фанка, то ли психоделического рока, то ли черт пойми чего из различных стран мира, включая Нигерию, Россию, Иран, Турцию, Южную Корею.
Не для слабонервных!
04:55
336
Нет комментариев. Ваш будет первым!