Вы используете незарегистрированную версию компонента "Вкладки"!

Поиск

(Progressive Jazz, British Jazz, Big Band) Mike Westbrook - Mike Westbrook's Metropolis - 1971, FLAC (tracks+.cue), lossless

(Progressive Jazz, British Jazz, Big Band) Mike Westbrook - Mike Westbrook's Metropolis - 1971, FLAC (tracks+.cue), lossless
Треклист:
Mike Westbrook / Mike Westbrook's Metropolis
Жанр: Progressive Jazz, British Jazz, Big Band
Страна-производитель диска: UK
Год издания: 1999
Издатель (лейбл): BGO Records
Номер по каталогу: BGOCD454
Страна: UK
Аудиокодек: FLAC (*.flac)
Тип рипа: tracks+.cue
Битрейт аудио: lossless
Продолжительность: 53:51
Источник (релизер): свой фирменный диск
Наличие сканов в содержимом раздачи:
Треклист:
1 Part I
2 Part II
3 Part III
4 Part IV
5 Part V
6 Part VI
7 Part VII
8 Part VIII
9 Part IX
 
Лог создания рипа
Exact Audio Copy V1.0 beta 3 from 29. August 2011
EAC extraction logfile from 22. February 2013, 16:47
Mike Westbrook / Metropolis
Used drive : PIONEER DVD-RW DVR-115D Adapter: 0 ID: 0
Read mode : Secure
Utilize accurate stream : Yes
Defeat audio cache : Yes
Make use of C2 pointers : No
Read offset correction : 48
Overread into Lead-In and Lead-Out : No
Fill up missing offset samples with silence : Yes
Delete leading and trailing silent blocks : No
Null samples used in CRC calculations : Yes
Used interface : Installed external ASPI interface
Gap handling : Appended to previous track
Used output format : User Defined Encoder
Selected bitrate : 896 kBit/s
Quality : High
Add ID3 tag : No
Command line compressor : C:\Program Files\Exact Audio Copy\FLAC\FLAC.EXE
Additional command line options : -6 -V -T "ARTIST=%artist%" -T "TITLE=%title%" -T "ALBUM=%albumtitle%" -T "DATE=%year%" -T "TRACKNUMBER=%tracknr%" -T "GENRE=%genre%" -T "COMMENT=%comment%" -T "BAND=%albuminterpret%" -T "COMPOSER=%composer%" %haslyrics%--tag-from-file=LYRICS="%lyricsfile%"%haslyrics% -T "DISCNUMBER=%cdnumber%" -T "TOTALDISCS=%totalcds%" -T "TOTALTRACKS=%numtracks%" %hascover%--picture="%coverfile%"%hascover% %source% -o %dest%
TOC of the extracted CD
Track | Start | Length | Start sector | End sector
---------------------------------------------------------
1 | 0:00.00 | 9:30.15 | 0 | 42764
2 | 9:30.15 | 2:10.02 | 42765 | 52516
3 | 11:40.17 | 9:49.70 | 52517 | 96761
4 | 21:30.12 | 3:33.60 | 96762 | 112796
5 | 25:03.72 | 0:40.45 | 112797 | 115841
6 | 25:44.42 | 0:52.70 | 115842 | 119811
7 | 26:37.37 | 1:10.20 | 119812 | 125081
8 | 27:47.57 | 18:00.38 | 125082 | 206119
9 | 45:48.20 | 8:02.70 | 206120 | 242339
Track 1
Filename D:\zzz\01 - Part I.wav
Pre-gap length 0:00:02.00
Peak level 90.1 %
Extraction speed 5.0 X
Track quality 100.0 %
Test CRC D9AC0A5A
Copy CRC D9AC0A5A
Accurately ripped (confidence 3) [8956D8A3] (AR v1)
Copy OK
Track 2
Filename D:\zzz\02 - Part II.wav
Peak level 84.4 %
Extraction speed 4.7 X
Track quality 100.0 %
Test CRC 319B77D8
Copy CRC 319B77D8
Accurately ripped (confidence 3) [B23A50CF] (AR v1)
Copy OK
Track 3
Filename D:\zzz\03 - Part III.wav
Pre-gap length 0:00:03.55
Peak level 82.4 %
Extraction speed 5.9 X
Track quality 99.9 %
Test CRC 2904A42D
Copy CRC 2904A42D
Accurately ripped (confidence 3) [787A7A20] (AR v1)
Copy OK
Track 4
Filename D:\zzz\04 - Part IV.wav
Pre-gap length 0:00:03.25
Peak level 68.6 %
Extraction speed 5.4 X
Track quality 99.9 %
Test CRC BC7585F8
Copy CRC BC7585F8
Accurately ripped (confidence 3) [D8F40ABD] (AR v1)
Copy OK
Track 5
Filename D:\zzz\05 - Part V.wav
Pre-gap length 0:00:02.50
Peak level 72.5 %
Extraction speed 3.9 X
Track quality 100.0 %
Test CRC 809D52EF
Copy CRC 809D52EF
Accurately ripped (confidence 3) [9860EFBC] (AR v1)
Copy OK
Track 6
Filename D:\zzz\06 - Part VI.wav
Peak level 88.5 %
Extraction speed 4.4 X
Track quality 100.0 %
Test CRC 0C6CC4A6
Copy CRC 0C6CC4A6
Accurately ripped (confidence 3) [1208CDDA] (AR v1)
Copy OK
Track 7
Filename D:\zzz\07 - Part VII.wav
Peak level 75.7 %
Extraction speed 4.9 X
Track quality 100.0 %
Test CRC 38713582
Copy CRC 38713582
Accurately ripped (confidence 3) [63DFF45A] (AR v1)
Copy OK
Track 8
Filename D:\zzz\08 - Part VIII.wav
Peak level 99.1 %
Extraction speed 7.9 X
Track quality 100.0 %
Test CRC 866CD1E6
Copy CRC 866CD1E6
Accurately ripped (confidence 3) [41F5BB8B] (AR v1)
Copy OK
Track 9
Filename D:\zzz\09 - Part IX.wav
Pre-gap length 0:00:05.15
Peak level 87.7 %
Extraction speed 8.4 X
Track quality 100.0 %
Test CRC 65BDF2BC
Copy CRC 65BDF2BC
Accurately ripped (confidence 3) [2CCD4854] (AR v1)
Copy OK
All tracks accurately ripped
No errors occurred
End of status report
==== Log checksum AFB7B39A288F70627B0249947CD5DCB30E1778DE42DDD112F813300259A2A82D ====
 
Содержание индексной карты (.CUE)
REM GENRE Jazz
REM DATE 1971
REM DISCID 7E0C9F09
REM COMMENT "ExactAudioCopy v1.0b3"
PERFORMER "Mike Westbrook"
TITLE "Metropolis"
FILE "01 - Part I.wav" WAVE
TRACK 01 AUDIO
TITLE "Part I"
PERFORMER "Mike Westbrook"
INDEX 01 00:00:00
FILE "02 - Part II.wav" WAVE
TRACK 02 AUDIO
TITLE "Part II"
PERFORMER "Mike Westbrook"
INDEX 01 00:00:00
TRACK 03 AUDIO
TITLE "Part III"
PERFORMER "Mike Westbrook"
INDEX 00 02:06:22
FILE "03 - Part III.wav" WAVE
INDEX 01 00:00:00
TRACK 04 AUDIO
TITLE "Part IV"
PERFORMER "Mike Westbrook"
INDEX 00 09:46:45
FILE "04 - Part IV.wav" WAVE
INDEX 01 00:00:00
TRACK 05 AUDIO
TITLE "Part V"
PERFORMER "Mike Westbrook"
INDEX 00 03:31:10
FILE "05 - Part V.wav" WAVE
INDEX 01 00:00:00
FILE "06 - Part VI.wav" WAVE
TRACK 06 AUDIO
TITLE "Part VI"
PERFORMER "Mike Westbrook"
INDEX 01 00:00:00
FILE "07 - Part VII.wav" WAVE
TRACK 07 AUDIO
TITLE "Part VII"
PERFORMER "Mike Westbrook"
INDEX 01 00:00:00
FILE "08 - Part VIII.wav" WAVE
TRACK 08 AUDIO
TITLE "Part VIII"
PERFORMER "Mike Westbrook"
INDEX 01 00:00:00
TRACK 09 AUDIO
TITLE "Part IX"
PERFORMER "Mike Westbrook"
INDEX 00 17:55:23
FILE "09 - Part IX.wav" WAVE
INDEX 01 00:00:00
 
Лог проверки качества
d:\>d:\aucdtect -d/-m0 d:\zzz\*.wav
auCDtect: CD records authenticity detector, version 0.8.2
Copyright (c) 2004 Oleg Berngardt. All rights reserved.
Copyright (c) 2004 Alexander Djourik. All rights reserved.
------------------------------------------------------------
Processing file: [01. Part I.wav]
------------------------------------------------------------
This track looks like CDDA with probability 100%
------------------------------------------------------------
Processing file: [02. Part II.wav]
------------------------------------------------------------
This track looks like CDDA with probability 100%
------------------------------------------------------------
Processing file: [03. Part III.wav]
------------------------------------------------------------
This track looks like CDDA with probability 99%
------------------------------------------------------------
Processing file: [04. Part IV.wav]
------------------------------------------------------------
This track looks like CDDA with probability 100%
------------------------------------------------------------
Processing file: [05. Part V.wav]
------------------------------------------------------------
This track looks like CDDA with probability 100%
------------------------------------------------------------
Processing file: [06. Part VI.wav]
------------------------------------------------------------
This track looks like CDDA with probability 100%
------------------------------------------------------------
Processing file: [07. Part VII.wav]
------------------------------------------------------------
This track looks like CDDA with probability 100%
------------------------------------------------------------
Processing file: [08. Part VIII.wav]
------------------------------------------------------------
This track looks like CDDA with probability 100%
------------------------------------------------------------
Processing file: [09. Part IX.wav]
------------------------------------------------------------
This track looks like CDDA with probability 100%
------------------------------------------------------------
Final Conclusion:
------------------------------------------------------------
These tracks looks like CDDA with probability 100%
 
Состав
Baritone Saxophone – John Warren
Bass, Bass Guitar – Chris Laurence
Drums – Alan Jackson, John Marshall
Electric Piano – John Taylor
Flugelhorn, Mellophone, Trumpet – Kenny Wheeler
Flugelhorn, Trumpet – Dave Holdsworth, Harry Beckett, Henry Lowther
Flute, Alto Saxophone – Ray Warleigh
Guitar – Gary Boyle
Piano, Producer, Tuba – Mike Westbrook
Soprano Saxophone, Tenor Saxophone – Alan Skidmore
Tenor Saxophone – George Khan
Trombone – Derek Wadsworth, Malcolm Griffiths, Paul Nieman
Trombone [Bass] – Geoff Perkins
Trumpet – Nigel Carter
Vocals – Norma Winstone
Any questions -> support@pro-jazz.com. По всем вопросам пишите -> support@pro-jazz.com
09:22
226
Нет комментариев. Ваш будет первым!