Вы используете незарегистрированную версию компонента "Вкладки"!

Поиск

(Progressive Big Band, Free Jazz, Post-Bop) Either/Orchestra - Across The Omniverse (2CD) - 1996, FLAC (tracks+.cue), lossless

(Progressive Big Band, Free Jazz, Post-Bop) Either/Orchestra - Across The Omniverse (2CD) - 1996, FLAC (tracks+.cue), lossless
Треклист:
Either/Orchestra / Across The Omniverse (2CD)
Жанр: Progressive Big Band, Free Jazz, Post-Bop
Страна-производитель диска: US
Год издания: 1996
Издатель (лейбл): Accurate Records
Номер по каталогу: AC-3272
Страна: US
Аудиокодек: FLAC (*.flac)
Тип рипа: tracks+.cue
Битрейт аудио: lossless
Продолжительность: 73:48 + 71:11
Источник (релизер): свой фирменный диск
Наличие сканов в содержимом раздачи: нет
Треклист:
 
CD1
1.1 The Jeep Is Jumpin' 3:52
1.2 Theme From "The E-Men" 6:28
1.3 No Negative Energy: Intro 2:17
1.4 No Negative Energy 5:37
1.5 Doghouse Interior 12:38
1.6 In a Sentimental Mood 4:01
1.7 Big Butt 3:58
1.8 The Look of Love 7:18
1.9 Night of the Living Blues 7:49
1.10 Swamiji's Mood 3:35
1.11 Born in a Suitcase 16:17
 
CD2
2.1 The New Llama Walk 4:31
2.2 Caravan 5:19
2.3 Timon of Athens 2:05
2.4 Blue Lights 6:30
2.5 There's a Bus That's Leaving Soon for Alban Berg's House 5:10
2.6 Coltrane in Paradise 8:19
2.7 The Door 8:59
2.8 Pendulum 8:29
2.9 (I Want You) She's So Heavy 8:06
2.10 Ballad for Sun Ra 5:00
2.11 Jump 6:00
2.12 The Battle Hymn of the Republic [unlisted track] 2:40
 
Лог создания рипа

 
CD1
Exact Audio Copy V1.0 beta 3 from 29. August 2011
EAC extraction logfile from 5. February 2013, 20:42
Either/Orchestra / Across The Omniverse CD1
Used drive : PIONEER DVD-RW DVR-115D Adapter: 0 ID: 0
Read mode : Secure
Utilize accurate stream : Yes
Defeat audio cache : Yes
Make use of C2 pointers : No
Read offset correction : 48
Overread into Lead-In and Lead-Out : No
Fill up missing offset samples with silence : Yes
Delete leading and trailing silent blocks : No
Null samples used in CRC calculations : Yes
Used interface : Installed external ASPI interface
Gap handling : Appended to previous track
Used output format : User Defined Encoder
Selected bitrate : 896 kBit/s
Quality : High
Add ID3 tag : No
Command line compressor : C:\Program Files\Exact Audio Copy\FLAC\FLAC.EXE
Additional command line options : -6 -V -T "ARTIST=%artist%" -T "TITLE=%title%" -T "ALBUM=%albumtitle%" -T "DATE=%year%" -T "TRACKNUMBER=%tracknr%" -T "GENRE=%genre%" -T "COMMENT=%comment%" -T "BAND=%albuminterpret%" -T "COMPOSER=%composer%" %haslyrics%--tag-from-file=LYRICS="%lyricsfile%"%haslyrics% -T "DISCNUMBER=%cdnumber%" -T "TOTALDISCS=%totalcds%" -T "TOTALTRACKS=%numtracks%" %hascover%--picture="%coverfile%"%hascover% %source% -o %dest%
TOC of the extracted CD
Track | Start | Length | Start sector | End sector
---------------------------------------------------------
1 | 0:00.00 | 3:50.40 | 0 | 17289
2 | 3:50.40 | 6:28.10 | 17290 | 46399
3 | 10:18.50 | 2:12.55 | 46400 | 56354
4 | 12:31.30 | 5:42.12 | 56355 | 82016
5 | 18:13.42 | 12:37.48 | 82017 | 138839
6 | 30:51.15 | 4:01.60 | 138840 | 156974
7 | 34:53.00 | 3:57.15 | 156975 | 174764
8 | 38:50.15 | 7:18.22 | 174765 | 207636
9 | 46:08.37 | 7:48.00 | 207637 | 242736
10 | 53:56.37 | 3:35.40 | 242737 | 258901
11 | 57:32.02 | 16:16.05 | 258902 | 332106
Track 1
Filename D:\zzz\01 - The Jeep Is Jumpin'.wav
Pre-gap length 0:00:02.00
Peak level 83.1 %
Extraction speed 2.8 X
Track quality 100.0 %
Test CRC DF2DA3B6
Copy CRC DF2DA3B6
Accurately ripped (confidence 2) [CE581724] (AR v1)
Copy OK
Track 2
Filename D:\zzz\02 - Theme From ''The E-Men''.wav
Pre-gap length 0:00:00.40
Peak level 96.7 %
Extraction speed 3.3 X
Track quality 100.0 %
Test CRC 879819A1
Copy CRC 879819A1
Accurately ripped (confidence 2) [20DFACE7] (AR v1)
Copy OK
Track 3
Filename D:\zzz\03 - No Negative Energy (Intro).wav
Peak level 68.7 %
Extraction speed 3.1 X
Track quality 100.0 %
Test CRC 3CACFD0B
Copy CRC 3CACFD0B
Accurately ripped (confidence 2) [CB3231BB] (AR v1)
Copy OK
Track 4
Filename D:\zzz\04 - No Negative Energy.wav
Peak level 97.7 %
Extraction speed 3.8 X
Track quality 100.0 %
Test CRC B544A2F9
Copy CRC B544A2F9
Accurately ripped (confidence 2) [68892A4C] (AR v1)
Copy OK
Track 5
Filename D:\zzz\05 - Doghouse Interior.wav
Pre-gap length 0:00:01.35
Peak level 88.8 %
Extraction speed 4.4 X
Track quality 100.0 %
Test CRC F8655AA7
Copy CRC F8655AA7
Accurately ripped (confidence 2) [A28E3FC2] (AR v1)
Copy OK
Track 6
Filename D:\zzz\06 - In A Sentimental Mood.wav
Peak level 70.8 %
Extraction speed 4.4 X
Track quality 100.0 %
Test CRC 46AF0273
Copy CRC 46AF0273
Accurately ripped (confidence 2) [47077657] (AR v1)
Copy OK
Track 7
Filename D:\zzz\07 - Big Butt.wav
Peak level 97.7 %
Extraction speed 4.5 X
Track quality 100.0 %
Test CRC 2A870346
Copy CRC 2A870346
Accurately ripped (confidence 2) [984FF155] (AR v1)
Copy OK
Track 8
Filename D:\zzz\08 - The Look Of Love.wav
Peak level 90.2 %
Extraction speed 5.1 X
Track quality 100.0 %
Test CRC 9F380DED
Copy CRC 9F380DED
Accurately ripped (confidence 2) [4524B3B1] (AR v1)
Copy OK
Track 9
Filename D:\zzz\09 - Night Of The Living Blues.wav
Peak level 73.0 %
Extraction speed 5.4 X
Track quality 100.0 %
Test CRC 6E1E31E5
Copy CRC 6E1E31E5
Accurately ripped (confidence 2) [4D83FAA1] (AR v1)
Copy OK
Track 10
Filename D:\zzz\10 - Swamiji's Mood.wav
Peak level 82.2 %
Extraction speed 5.1 X
Track quality 100.0 %
Test CRC 56D0BA93
Copy CRC 56D0BA93
Accurately ripped (confidence 2) [A34DD469] (AR v1)
Copy OK
Track 11
Filename D:\zzz\11 - Born In A Suitcase.wav
Pre-gap length 0:00:01.00
Peak level 74.4 %
Extraction speed 5.9 X
Track quality 99.9 %
Test CRC 91D6248F
Copy CRC 91D6248F
Accurately ripped (confidence 2) [7F2B50C6] (AR v1)
Copy OK
All tracks accurately ripped
No errors occurred
End of status report
==== Log checksum 79165992C25AA81A3EF8002C289317B8140E9DE63B22511F9DFD1AFC11DD9D3A ====
 
CD2
Exact Audio Copy V1.0 beta 3 from 29. August 2011
EAC extraction logfile from 5. February 2013, 21:06
Either/Orchestra / Across The Omniverse CD2
Used drive : PIONEER DVD-RW DVR-115D Adapter: 0 ID: 0
Read mode : Secure
Utilize accurate stream : Yes
Defeat audio cache : Yes
Make use of C2 pointers : No
Read offset correction : 48
Overread into Lead-In and Lead-Out : No
Fill up missing offset samples with silence : Yes
Delete leading and trailing silent blocks : No
Null samples used in CRC calculations : Yes
Used interface : Installed external ASPI interface
Gap handling : Appended to previous track
Used output format : User Defined Encoder
Selected bitrate : 896 kBit/s
Quality : High
Add ID3 tag : No
Command line compressor : C:\Program Files\Exact Audio Copy\FLAC\FLAC.EXE
Additional command line options : -6 -V -T "ARTIST=%artist%" -T "TITLE=%title%" -T "ALBUM=%albumtitle%" -T "DATE=%year%" -T "TRACKNUMBER=%tracknr%" -T "GENRE=%genre%" -T "COMMENT=%comment%" -T "BAND=%albuminterpret%" -T "COMPOSER=%composer%" %haslyrics%--tag-from-file=LYRICS="%lyricsfile%"%haslyrics% -T "DISCNUMBER=%cdnumber%" -T "TOTALDISCS=%totalcds%" -T "TOTALTRACKS=%numtracks%" %hascover%--picture="%coverfile%"%hascover% %source% -o %dest%
TOC of the extracted CD
Track | Start | Length | Start sector | End sector
---------------------------------------------------------
1 | 0:00.00 | 4:28.62 | 0 | 20161
2 | 4:28.62 | 5:19.13 | 20162 | 44099
3 | 9:48.00 | 2:05.27 | 44100 | 53501
4 | 11:53.27 | 6:29.68 | 53502 | 82744
5 | 18:23.20 | 5:10.40 | 82745 | 106034
6 | 23:33.60 | 8:18.60 | 106035 | 143444
7 | 31:52.45 | 9:01.65 | 143445 | 184084
8 | 40:54.35 | 8:28.00 | 184085 | 222184
9 | 49:22.35 | 8:05.35 | 222185 | 258594
10 | 57:27.70 | 5:00.40 | 258595 | 281134
11 | 62:28.35 | 6:02.25 | 281135 | 308309
12 | 68:30.60 | 2:40.20 | 308310 | 320329
Track 1
Filename D:\zzz\01 - The New Llama Walk.wav
Pre-gap length 0:00:02.00
Peak level 97.7 %
Extraction speed 4.8 X
Track quality 100.0 %
Test CRC B480AF88
Copy CRC B480AF88
Accurately ripped (confidence 2) [0D0DD47D] (AR v1)
Copy OK
Track 2
Filename D:\zzz\02 - Caravan.wav
Peak level 86.9 %
Extraction speed 5.4 X
Track quality 100.0 %
Test CRC 37A98DF4
Copy CRC 37A98DF4
Accurately ripped (confidence 2) [4B8AE787] (AR v1)
Copy OK
Track 3
Filename D:\zzz\03 - Timon Of Athens.wav
Peak level 95.3 %
Extraction speed 5.0 X
Track quality 100.0 %
Test CRC 590A7A1C
Copy CRC 590A7A1C
Accurately ripped (confidence 2) [F1803BAB] (AR v1)
Copy OK
Track 4
Filename D:\zzz\04 - Blue Lights.wav
Peak level 98.8 %
Extraction speed 6.3 X
Track quality 100.0 %
Test CRC 21E73F00
Copy CRC 21E73F00
Accurately ripped (confidence 2) [C1E409CC] (AR v1)
Copy OK
Track 5
Filename D:\zzz\05 - There's A Bus That's Leaving Soon For Alban Berg's House.wav
Peak level 73.4 %
Extraction speed 6.6 X
Track quality 100.0 %
Test CRC 854A9573
Copy CRC 854A9573
Accurately ripped (confidence 2) [6FFC921A] (AR v1)
Copy OK
Track 6
Filename D:\zzz\06 - Coltrane In Paradise.wav
Peak level 87.0 %
Extraction speed 7.4 X
Track quality 100.0 %
Test CRC 4A6FDE69
Copy CRC 4A6FDE69
Accurately ripped (confidence 2) [791AE920] (AR v1)
Copy OK
Track 7
Filename D:\zzz\07 - The Door.wav
Peak level 91.9 %
Extraction speed 8.0 X
Track quality 100.0 %
Test CRC EF28D6BF
Copy CRC EF28D6BF
Accurately ripped (confidence 2) [60735231] (AR v1)
Copy OK
Track 8
Filename D:\zzz\08 - Pendulum.wav
Pre-gap length 0:00:02.30
Peak level 68.0 %
Extraction speed 8.5 X
Track quality 100.0 %
Test CRC 59B23B0A
Copy CRC 59B23B0A
Accurately ripped (confidence 2) [1B4736A5] (AR v1)
Copy OK
Track 9
Filename D:\zzz\09 - (I Want You) She's So Heavy.wav
Pre-gap length 0:00:00.70
Peak level 96.2 %
Extraction speed 8.9 X
Track quality 100.0 %
Test CRC CC18B256
Copy CRC CC18B256
Accurately ripped (confidence 2) [218DEBB0] (AR v1)
Copy OK
Track 10
Filename D:\zzz\10 - Ballad For Sun Ra.wav
Peak level 64.6 %
Extraction speed 8.9 X
Track quality 100.0 %
Test CRC D794818C
Copy CRC D794818C
Accurately ripped (confidence 2) [DBE036AB] (AR v1)
Copy OK
Track 11
Filename D:\zzz\11 - Jump.wav
Pre-gap length 0:00:00.63
Peak level 90.5 %
Extraction speed 9.3 X
Track quality 100.0 %
Test CRC 4E044E24
Copy CRC 4E044E24
Accurately ripped (confidence 2) [FC5CF46E] (AR v1)
Copy OK
Track 12
Filename D:\zzz\12 - Extra.wav
Pre-gap length 0:00:03.15
Peak level 72.2 %
Extraction speed 8.4 X
Track quality 100.0 %
Test CRC ECAB67BD
Copy CRC ECAB67BD
Accurately ripped (confidence 2) [2B01843C] (AR v1)
Copy OK
All tracks accurately ripped
No errors occurred
End of status report
==== Log checksum 266BFF739E5DCB5DEBCA482525D2965973AD84115268508E89E02A882A5FEA93 ====
 
Содержание индексной карты (.CUE)

 
CD1
REM GENRE Jazz
REM DATE 1996
REM DISCID 8A114C0B
REM COMMENT "ExactAudioCopy v1.0b3"
PERFORMER "Either/Orchestra"
TITLE "Across The Omniverse CD1"
FILE "01 - The Jeep Is Jumpin'.wav" WAVE
TRACK 01 AUDIO
TITLE "The Jeep Is Jumpin'"
PERFORMER "Either/Orchestra"
INDEX 01 00:00:00
TRACK 02 AUDIO
TITLE "Theme From 'The E-Men'"
PERFORMER "Either/Orchestra"
INDEX 00 03:50:00
FILE "02 - Theme From ''The E-Men''.wav" WAVE
INDEX 01 00:00:00
FILE "03 - No Negative Energy (Intro).wav" WAVE
TRACK 03 AUDIO
TITLE "No Negative Energy (Intro)"
PERFORMER "Either/Orchestra"
INDEX 01 00:00:00
FILE "04 - No Negative Energy.wav" WAVE
TRACK 04 AUDIO
TITLE "No Negative Energy"
PERFORMER "Either/Orchestra"
INDEX 01 00:00:00
TRACK 05 AUDIO
TITLE "Doghouse Interior"
PERFORMER "Either/Orchestra"
INDEX 00 05:40:52
FILE "05 - Doghouse Interior.wav" WAVE
INDEX 01 00:00:00
FILE "06 - In A Sentimental Mood.wav" WAVE
TRACK 06 AUDIO
TITLE "In A Sentimental Mood"
PERFORMER "Either/Orchestra"
INDEX 01 00:00:00
FILE "07 - Big Butt.wav" WAVE
TRACK 07 AUDIO
TITLE "Big Butt"
PERFORMER "Either/Orchestra"
INDEX 01 00:00:00
FILE "08 - The Look Of Love.wav" WAVE
TRACK 08 AUDIO
TITLE "The Look Of Love"
PERFORMER "Either/Orchestra"
INDEX 01 00:00:00
FILE "09 - Night Of The Living Blues.wav" WAVE
TRACK 09 AUDIO
TITLE "Night Of The Living Blues"
PERFORMER "Either/Orchestra"
INDEX 01 00:00:00
FILE "10 - Swamiji's Mood.wav" WAVE
TRACK 10 AUDIO
TITLE "Swamiji's Mood"
PERFORMER "Either/Orchestra"
INDEX 01 00:00:00
TRACK 11 AUDIO
TITLE "Born In A Suitcase"
PERFORMER "Either/Orchestra"
INDEX 00 03:34:40
FILE "11 - Born In A Suitcase.wav" WAVE
INDEX 01 00:00:00
 
CD2
REM GENRE Jazz
REM DATE 1996
REM DISCID 9810AF0C
REM COMMENT "ExactAudioCopy v1.0b3"
PERFORMER "Either/Orchestra"
TITLE "Across The Omniverse CD2"
FILE "01 - The New Llama Walk.wav" WAVE
TRACK 01 AUDIO
TITLE "The New Llama Walk"
PERFORMER "Either/Orchestra"
INDEX 01 00:00:00
FILE "02 - Caravan.wav" WAVE
TRACK 02 AUDIO
TITLE "Caravan"
PERFORMER "Either/Orchestra"
INDEX 01 00:00:00
FILE "03 - Timon Of Athens.wav" WAVE
TRACK 03 AUDIO
TITLE "Timon Of Athens"
PERFORMER "Either/Orchestra"
INDEX 01 00:00:00
FILE "04 - Blue Lights.wav" WAVE
TRACK 04 AUDIO
TITLE "Blue Lights"
PERFORMER "Either/Orchestra"
INDEX 01 00:00:00
FILE "05 - There's A Bus That's Leaving Soon For Alban Berg's House.wav" WAVE
TRACK 05 AUDIO
TITLE "There's A Bus That's Leaving Soon For Alban Berg's House"
PERFORMER "Either/Orchestra"
INDEX 01 00:00:00
FILE "06 - Coltrane In Paradise.wav" WAVE
TRACK 06 AUDIO
TITLE "Coltrane In Paradise"
PERFORMER "Either/Orchestra"
INDEX 01 00:00:00
FILE "07 - The Door.wav" WAVE
TRACK 07 AUDIO
TITLE "The Door"
PERFORMER "Either/Orchestra"
INDEX 01 00:00:00
TRACK 08 AUDIO
TITLE "Pendulum"
PERFORMER "Either/Orchestra"
INDEX 00 08:59:35
FILE "08 - Pendulum.wav" WAVE
INDEX 01 00:00:00
TRACK 09 AUDIO
TITLE "(I Want You) She's So Heavy"
PERFORMER "Either/Orchestra"
INDEX 00 08:27:05
FILE "09 - (I Want You) She's So Heavy.wav" WAVE
INDEX 01 00:00:00
FILE "10 - Ballad For Sun Ra.wav" WAVE
TRACK 10 AUDIO
TITLE "Ballad For Sun Ra"
PERFORMER "Either/Orchestra"
INDEX 01 00:00:00
TRACK 11 AUDIO
TITLE "Jump"
PERFORMER "Either/Orchestra"
INDEX 00 04:59:52
FILE "11 - Jump.wav" WAVE
INDEX 01 00:00:00
TRACK 12 AUDIO
TITLE "Extra"
PERFORMER "Either/Orchestra"
INDEX 00 05:59:10
FILE "12 - Extra.wav" WAVE
INDEX 01 00:00:00
 
Лог проверки качества
d:\>d:\aucdtect -d/-m0 d:\zzz\*.wav
auCDtect: CD records authenticity detector, version 0.8.2
Copyright (c) 2004 Oleg Berngardt. All rights reserved.
Copyright (c) 2004 Alexander Djourik. All rights reserved.
------------------------------------------------------------
Processing file: [01. The Jeep Is Jumpin'.wav]
------------------------------------------------------------
This track looks like CDDA with probability 100%
------------------------------------------------------------
Processing file: [01. The New Llama Walk.wav]
------------------------------------------------------------
This track looks like CDDA with probability 100%
------------------------------------------------------------
Processing file: [02. Caravan.wav]
------------------------------------------------------------
This track looks like CDDA with probability 100%
------------------------------------------------------------
Processing file: [02. Theme From 'The E-Men'.wav]
------------------------------------------------------------
This track looks like CDDA with probability 100%
------------------------------------------------------------
Processing file: [03. No Negative Energy (Intro).wav]
------------------------------------------------------------
This track looks like CDDA with probability 100%
------------------------------------------------------------
Processing file: [03. Timon Of Athens.wav]
------------------------------------------------------------
This track looks like CDDA with probability 100%
------------------------------------------------------------
Processing file: [04. Blue Lights.wav]
------------------------------------------------------------
This track looks like CDDA with probability 99%
------------------------------------------------------------
Processing file: [04. No Negative Energy.wav]
------------------------------------------------------------
This track looks like CDDA with probability 100%
------------------------------------------------------------
Processing file: [05. Doghouse Interior.wav]
------------------------------------------------------------
This track looks like CDDA with probability 100%
------------------------------------------------------------
Processing file: [05. There's A Bus That's Leaving Soon For Alban Berg's House.wav]
------------------------------------------------------------
This track looks like CDDA with probability 100%
------------------------------------------------------------
Processing file: [06. Coltrane In Paradise.wav]
------------------------------------------------------------
This track looks like CDDA with probability 100%
------------------------------------------------------------
Processing file: [06. In A Sentimental Mood.wav]
------------------------------------------------------------
This track looks like CDDA with probability 100%
------------------------------------------------------------
Processing file: [07. Big Butt.wav]
------------------------------------------------------------
This track looks like CDDA with probability 99%
------------------------------------------------------------
Processing file: [07. The Door.wav]
------------------------------------------------------------
This track looks like CDDA with probability 100%
------------------------------------------------------------
Processing file: [08. Pendulum.wav]
------------------------------------------------------------
This track looks like CDDA with probability 100%
------------------------------------------------------------
Processing file: [08. The Look Of Love.wav]
------------------------------------------------------------
This track looks like CDDA with probability 100%
------------------------------------------------------------
Processing file: [09. (I Want You) She's So Heavy.wav]
------------------------------------------------------------
This track looks like CDDA with probability 100%
------------------------------------------------------------
Processing file: [09. Night Of The Living Blues.wav]
------------------------------------------------------------
This track looks like CDDA with probability 100%
------------------------------------------------------------
Processing file: [10. Ballad For Sun Ra.wav]
------------------------------------------------------------
This track looks like CDDA with probability 100%
------------------------------------------------------------
Processing file: [10. Swamiji's Mood.wav]
------------------------------------------------------------
This track looks like CDDA with probability 100%
------------------------------------------------------------
Processing file: [11. Born In A Suitcase.wav]
------------------------------------------------------------
This track looks like CDDA with probability 99%
------------------------------------------------------------
Processing file: [11. Jump.wav]
------------------------------------------------------------
This track looks like CDDA with probability 100%
------------------------------------------------------------
Processing file: [12. Extra.wav]
------------------------------------------------------------
This track looks like CDDA with probability 99%
------------------------------------------------------------
Final Conclusion:
------------------------------------------------------------
These tracks looks like CDDA with probability 100%
Доп. информация:
 
Album Info
21 never-before released STUDIO tracks. 145 minutes of music.
Marking the tenth anniversary of their existence as a performing unit, Across the Omniverse is a two-CD set which documents live recordings from 1986-1995. There are six different configurations of the band, each containing a shifting cast of ten or 11 members and the selections offer a good representation of the type of material they generally performed. Essentially, they are a just slightly left of mainstream group with fairly "standard" charts augmented by soloists quite capable of playing outside. Leader Russ Gershon showed a strong affinity for Ellington and Mingus as well as various modern masters like Roscoe Mitchell. The original compositions range from smart and catchy (Gershon's "Theme From the E-Men") to several others that sound more murky and sluggish. As in any Either/Orchestra affair, however, much of the fun is in the uncannily weird choices they make with regard to cover songs. Recordings that include versions of songs by both Burt Bacharach and John Tchicai must be few and far between, not to mention a sludgy, hard rock version of John Lennon's "(I Want You) She's So Heavy." Fans of the ensemble will certainly want this release, but newcomers would be better served by earlier, and more solid, albums like The Calculus of Pleasure or The Half-Life of Desire.
 
Состав
Alto Saxophone – Douglas Yates (tracks: 1-4, 1-9, 1-11, 2-1, 2-6), Oscar Noriega (tracks: 1-7, 1-10, 2-5, 2-10), Robb Rawlings (tracks: 1-6, 2-8, 2-9)
Alto Saxophone, Clarinet – Andrew D'Angelo (tracks: 1-1, 1-2, 1-5, 1-8, 2-2 to 2-4, 2-7, 2-11)
Baritone Saxophone – Charlie Kohlhase, Steve Norton (tracks: 1-6, 2-8)
Bass – Bob Nieske (tracks: 1-4, 1-11, 2-1), John Turner (9) (tracks: 1-1, 1-2, 1-5, 1-7, 1-8, 1-10, 2-2 to 2-5, 2-7, 2-10, 2-11), Mike Rivard (tracks: 1-6, 1-9, 2-8, 2-9)
Drums – Eric Rosenthal (tracks: 1-7, 1-10, 2-5, 2-10), Jerome Deupree (tracks: 1-6, 1-9, 2-8, 2-9), Matt Wilson (tracks: 1-3 to 1-5, 1-8, 2-1 to 2-4, 2-6, 2-7, 2-11)
Electric Guitar – John Dirac (tracks: 1-6, 1-9, 2-8, 2-9)
Piano, Organ – John Medeski (tracks: 1-4, 1-9, 1-11, 2-1, 2-6)
Piano, Synthesizer – Chris Taylor (29) (tracks: 1-1, 1-2, 1-5, 1-7, 1-8, 1-10, 2-2 to 2-5, 2-7, 2-10, 2-11)
Piano, Synthesizer [Dx7] – Kenny Freundlich (tracks: 1-6, 2-8, 2-9)
Soprano Saxophone, Tenor Saxophone, Producer – Russ Gershon
Trombone – Curtis Hasselbring, Dan Fox (tracks: 1-1, 1-2, 1-5, 1-7, 1-8, 1-10, 2-2 to 2-5, 2-7, 2-10, 2-11), Josh Roseman (tracks: 1-6, 2-8), Russell Jewell (tracks: 1-1 to 1-6, 1-8, 1-9, 1-11, 2-1 to 2-4, 2-6 to 2-9, 2-11)
Trumpet – John Carlson, Bob Seely (tracks: 1-6, 2-8), Tom Halter
Any questions -> support@pro-jazz.com. По всем вопросам пишите -> support@pro-jazz.com
09:00
133
Нет комментариев. Ваш будет первым!