Вы используете незарегистрированную версию компонента "Вкладки"!

Поиск

(Post-Bop/Modern Creative) Geri Allen - The Gathering - 1998, APE (image+.cue) lossless

Треклист:
Geri Allen / The Gathering
Жанр: Post-Bop/Modern Creative
Год издания диска: 1998
Издатель (лейбл): Verve
Номер по каталогу: 557 614-2
Аудио кодек: APE (*.ape)
Тип рипа: image+.cue
Битрейт аудио: lossless
Продолжительность: 61:11
Источник (релизер): ED2K
Наличие сканов в содержимом раздачи: да
Треклист:
01. The Gathering 5:22
02. Dark Prince 5:47
03. Sleepin' Pretty 6:48
04. Light Matter 6:56
05. Baby's Breath (For Little Barbara) 1:13
06. Ray 5:22
07. Soul Beir 6:02
08. Joy and Wonder 4:40
09. Gabriel's Royal Blue Reals 6:31
10. Daybreak and Dreams 5:41
11. Angels 6:42
 
Лог создания рипа
Exact Audio Copy V0.99 prebeta 3 from 28. July 2007
EAC extraction logfile from 15. May 2008, 9:23
Geri Allen / The Gathering
Used drive : PLEXTOR CD-R PX-W1210A Adapter: 1 ID: 1
Read mode : Secure
Utilize accurate stream : Yes
Defeat audio cache : Yes
Make use of C2 pointers : No
Read offset correction : 99
Overread into Lead-In and Lead-Out : No
Fill up missing offset samples with silence : Yes
Delete leading and trailing silent blocks : No
Null samples used in CRC calculations : Yes
Used interface : Installed external ASPI interface
Used output format : Internal WAV Routines
Sample format : 44.100 Hz; 16 Bit; Stereo
TOC of the extracted CD
Track | Start | Length | Start sector | End sector
---------------------------------------------------------
1 | 0:00.00 | 5:23.25 | 0 | 24249
2 | 5:23.25 | 5:48.45 | 24250 | 50394
3 | 11:11.70 | 6:48.50 | 50395 | 81044
4 | 18:00.45 | 6:56.67 | 81045 | 112311
5 | 24:57.37 | 1:13.25 | 112312 | 117811
6 | 26:10.62 | 5:22.03 | 117812 | 141964
7 | 31:32.65 | 6:02.60 | 141965 | 169174
8 | 37:35.50 | 4:39.62 | 169175 | 190161
9 | 42:15.37 | 6:31.13 | 190162 | 219499
10 | 48:46.50 | 5:41.25 | 219500 | 245099
11 | 54:28.00 | 6:43.00 | 245100 | 275324
Range status and errors
Selected range
Filename C:\Converted Music\CDImage.wav
Peak level 100.0 %
Range quality 100.0 %
Copy CRC 81AF0C36
Copy OK
No errors occurred
End of status report
 
Лог проверки качества
AUDIOCHECKER v2.0 beta (build 457) - by Dester - opdester@freemail.hu
~~~~~~~~~~~~~~~~~~~~~~~~~~~~~~~~~~
-=== DO NOT EDIT THIS FILE! ===-
Path: ...\Geri Allen - The Gathering
1 -=- CDImage.ape -=- CDDA (100%)
2629300
 
Состав
Geri Allen - piano
Dwight Andrews - reeds, flute (alto), flute (bass), piccolo
Robin Eubanks - trombone
Wallace Roney - trumpet, flugelhorn
Vernon Reid - acoustic & electric guitars
Mino Cinelu - percussion
Ralphe Armstrong - bass
Buster Williams - bass
Lenny White - drums
Any questions - support@pro-jazz.com.
Есть вопросы - support@pro-jazz.com
00:26
216
Нет комментариев. Ваш будет первым!