Поиск

(Post-Bop, World Fusion) Oregon - In Concert - 1975, FLAC (image+.cue), lossless

(Post-Bop, World Fusion) Oregon - In Concert - 1975, FLAC (image+.cue), lossless
Треклист:
Oregon - In Concert
Жанр: Post-Bop, World Fusion
Год выпуска диска: 1975
Производитель диска: Россия
Аудио кодек: FLAC
Тип рипа: image+.cue
Битрейт аудио: lossless
Продолжительность: 42:39
Происxождение рипа: Собственный рип из личной коллекции
Трэклист:
1. Introduction (Schutz) 0:42
2. Become, Seem, Appear (Oregon) 6:36
3. Summer Solstice (Towner) 9:46
4. Undertow (McCandless) 3:43
5. The Silence Of A Candle (Towner) 9:53
6. Tryton's Horn (Oregon) 5:01
7. Yet To Be (Towner) 6:55
Доп. информация:
Исполнители:
Paul McCandless - Oboe, English Horn, Bass Clarinet, Wooden Flute
Glen Moore - Bass, Flute, Violin, Piano on tr. 6
Ralph Towner - 12 String and Classical Guitars, Mellophone, French Horn, Trumpet, Piano on tr. 7
Collin Walcott - Sitar, Tabla, Clarinet, Percussion, Congas
 
EAC Report
Exact Audio Copy V0.99 prebeta 4 from 23. January 2008
Отчёт EAC об извлечении, выполненном 15. мая 2010, 23:12
Oregon / In Concert
Дисковод: ASUS DRW-20B1LT Adapter: 4 ID: 0
Режим чтения : Достоверность
Использование точного потока : Да
Отключение кэша аудио : Да
Использование указателей C2 : Нет
Коррекция смещения при чтении : 6
Способность читать области Lead-in и Lead-out : Нет
Заполнение пропущенных сэмплов тишиной : Да
Удаление блоков с тишиной в начале и конце : Нет
При вычислениях CRC использовались нулевые сэмплы : Да
Интерфейс : Встроенный Win32-интерфейс для Win NT/2000
Выходной формат : Пользовательский кодировщик
Выбранный битрейт : 768 kBit/s
Качество : Высокий
Добавление ID3-тэга : Нет
Утилита сжатия : D:\Program Files\Exact Audio Copy\Flac\Flac.exe
Дополнительные параметры : -8 --delete-input-file -o "D:\CDImage.flac" -V %s
TOC извлечённого CD
Трек | Старт | Длительность | Начальный сектор | Конечный сектор
---------------------------------------------------------------------
1 | 0:00.00 | 0:42.05 | 0 | 3154
2 | 0:42.05 | 6:39.15 | 3155 | 33094
3 | 7:21.20 | 9:43.30 | 33095 | 76849
4 | 17:04.50 | 3:43.45 | 76850 | 93619
5 | 20:48.20 | 9:50.37 | 93620 | 137906
6 | 30:38.57 | 5:04.52 | 137907 | 160758
7 | 35:43.34 | 6:56.06 | 160759 | 191964
Характеристики диапазона извлечения и сообщения об ошибках
Выбранный диапазон
Имя файла D:\Oregon - In Concert.wav
Пиковый уровень 100.0 %
Качество диапазона 100.0 %
CRC теста B8095FB1
CRC копии B8095FB1
Копирование... OK
Ошибок не произошло
AccurateRip: сводка
Трек 1 точность не определена (достоверность 2) [8B8BCCF6], AccurateRip вернул [FB2991F7]
Трек 2 точность не определена (достоверность 2) [DB16FFD1], AccurateRip вернул [BFE1C3A8]
Трек 3 точность не определена (достоверность 2) [962FEAF4], AccurateRip вернул [97C9D00C]
Трек 4 точность не определена (достоверность 2) [B44FFD29], AccurateRip вернул [252BFC11]
Трек 5 точность не определена (достоверность 2) [D2E4D1D2], AccurateRip вернул [6A949F22]
Трек 6 точность не определена (достоверность 2) [B9BB098A], AccurateRip вернул [579132F0]
Трек 7 точность не определена (достоверность 2) [41AD1455], AccurateRip вернул [27A751FF]
Ни один трек не прошёл проверки на точность
В вашей базе может быть иной вариант штамповки диска
Конец отчёта
14:58
316
Нет комментариев. Ваш будет первым!