Вы используете незарегистрированную версию компонента "Вкладки"!

Поиск

(Post-Bop, World Fusion) Monty Alexander - Caribbean Circle - 1992, FLAC (tracks+.cue), lossless

(Post-Bop, World Fusion) Monty Alexander - Caribbean Circle - 1992, FLAC (tracks+.cue), lossless
Треклист:
Monty Alexander – Caribbean Circle
Жанр: Post-Bop, World Fusion
Год издания: 1992
Издатель (лейбл): Chesky
Номер по каталогу: JD 80
Аудиокодек: FLAC (*.flac)
Тип рипа: tracks+.cue
Битрейт аудио: lossless
Продолжительность: 58:19
Источник (релизер): What.cd (nemico)
Наличие сканов в содержимом раздачи: да
Треклист:
01. Tradewinds Talk (1:05)
02. Hurricane Come And Gone (6:45)
03. Caribbean Circle (7:13)
04. Consider (5:06)
05. Cowboys Talk (1:16)
06. Cowboy Ska Medley (8:45)
07. Three Little Birds (4:45)
08. Oh Why? (In Memory Of M.D. Davis) (5:49)
09. Satchmo Talk (1:30)
10. When The Saints Go Marching In (7:32)
11. Mango Walk (Old Fork Song) (4:38)
12. Sweet Georgia Brown (3:54)
Personnel:
Monty Alexander - spoken vocals, piano, whistle
Jon Faddis, E. Dankworth - trumpet
Slide Hampton - trombone
Dave Glasser - alto saxophone
Frank Foster - tenor saxophone
Ira Coleman - acoustic bass, Anthony Jackson - electric bass
Herlin Riley, Steve Ferrone - drums
Robert Thomas Jr. - hand drums
Othello Molineax - steel drums
Marjorie Whylie - percussion
Rec.: Mastersound, Astoria Queens, NYC, NY, June 3 & 4, 1992.
 
 
Лог создания рипа
X Lossless Decoder version 20120609 (141.0)
XLD extraction logfile from 2012-07-28 02:25:10 -0400
Monty Alexander / Caribbean Circle
Used drive : OPTIARC DVD RW AD-5670S (revision 2AHI)
Ripper mode : XLD Secure Ripper
Disable audio cache : OK for the drive with a cache less than 1375KiB
Make use of C2 pointers : NO
Read offset correction : 48
Max retry count : 100
Gap status : Analyzed, Appended (except HTOA)
TOC of the extracted CD
Track | Start | Length | Start sector | End sector
---------------------------------------------------------
1 | 00:00:37 | 01:05:35 | 37 | 4946
2 | 01:05:72 | 06:45:23 | 4947 | 35344
3 | 07:51:20 | 07:12:55 | 35345 | 67799
4 | 15:04:00 | 05:05:52 | 67800 | 90726
5 | 20:09:52 | 01:15:48 | 90727 | 96399
6 | 21:25:25 | 08:45:17 | 96400 | 135791
7 | 30:10:42 | 04:45:35 | 135792 | 157201
8 | 34:56:02 | 05:49:23 | 157202 | 183399
9 | 40:45:25 | 01:29:47 | 183400 | 190121
10 | 42:14:72 | 07:31:73 | 190122 | 224019
11 | 49:46:70 | 04:38:00 | 224020 | 244869
12 | 54:24:70 | 03:54:17 | 244870 | 262436
AccurateRip Summary (DiscID: 0019d5ab-00f40ab2-af0dab0c)
Track 01 : OK (v1+v2, confidence 15/15)
Track 02 : OK (v1+v2, confidence 15/15)
Track 03 : OK (v1+v2, confidence 15/15)
Track 04 : OK (v1+v2, confidence 15/15)
Track 05 : OK (v1+v2, confidence 15/15)
Track 06 : OK (v1+v2, confidence 15/15)
Track 07 : OK (v1+v2, confidence 15/15)
Track 08 : OK (v1+v2, confidence 15/15)
Track 09 : OK (v1+v2, confidence 15/15)
Track 10 : OK (v1+v2, confidence 15/15)
Track 11 : OK (v1+v2, confidence 15/15)
Track 12 : OK (v1+v2, confidence 15/15)
->All tracks accurately ripped.
All Tracks
Album gain : 6.24 dB
Peak : 0.999969
Statistics
Read error : 0
Jitter error (maybe fixed) : 0
Retry sector count : 0
Damaged sector count : 0
Track 01
Filename : /Volumes/Music/FLAC/Monty Alexander - Caribbean Circle (1992) [FLAC]/01 Tradewinds Talk.flac
Pre-gap length : 00:02:37
Track gain : 17.76 dB
Peak : 0.106354
CRC32 hash (test run) : E19BADA5
CRC32 hash : E19BADA5
CRC32 hash (skip zero) : 73D1E6EB
AccurateRip v1 signature : 3FF0BA97
AccurateRip v2 signature : C021D75B
->Accurately ripped (v1+v2, confidence 12+3/15)
Statistics
Read error : 0
Jitter error (maybe fixed) : 0
Retry sector count : 0
Damaged sector count : 0
Track 02
Filename : /Volumes/Music/FLAC/Monty Alexander - Caribbean Circle (1992) [FLAC]/02 Hurricane Come And Gone.flac
Pre-gap length : 00:00:35
Track gain : 7.91 dB
Peak : 0.764954
CRC32 hash (test run) : 048C394D
CRC32 hash : 048C394D
CRC32 hash (skip zero) : FDDFD80D
AccurateRip v1 signature : EDCC7E37
AccurateRip v2 signature : C573BA81
->Accurately ripped (v1+v2, confidence 12+3/15)
Statistics
Read error : 0
Jitter error (maybe fixed) : 0
Retry sector count : 0
Damaged sector count : 0
Track 03
Filename : /Volumes/Music/FLAC/Monty Alexander - Caribbean Circle (1992) [FLAC]/03 Caribbean Circle.flac
Pre-gap length : 00:02:20
Track gain : 5.51 dB
Peak : 0.647156
CRC32 hash (test run) : AF1C168B
CRC32 hash : AF1C168B
CRC32 hash (skip zero) : 3F1B2C74
AccurateRip v1 signature : DD3CDE1E
AccurateRip v2 signature : 24100FC0
->Accurately ripped (v1+v2, confidence 12+3/15)
Statistics
Read error : 0
Jitter error (maybe fixed) : 0
Retry sector count : 0
Damaged sector count : 0
Track 04
Filename : /Volumes/Music/FLAC/Monty Alexander - Caribbean Circle (1992) [FLAC]/04 Consider.flac
Pre-gap length : 00:01:57
Track gain : 10.76 dB
Peak : 0.283203
CRC32 hash (test run) : 9FDDFC79
CRC32 hash : 9FDDFC79
CRC32 hash (skip zero) : 8CD8FBA4
AccurateRip v1 signature : 7865EA9E
AccurateRip v2 signature : 6772E197
->Accurately ripped (v1+v2, confidence 12+3/15)
Statistics
Read error : 0
Jitter error (maybe fixed) : 0
Retry sector count : 0
Damaged sector count : 0
Track 05
Filename : /Volumes/Music/FLAC/Monty Alexander - Caribbean Circle (1992) [FLAC]/05 Cowboys Talk.flac
Pre-gap length : 00:03:62
Track gain : 18.39 dB
Peak : 0.094299
CRC32 hash (test run) : 14D6160A
CRC32 hash : 14D6160A
CRC32 hash (skip zero) : EF2BB1D6
AccurateRip v1 signature : 0887AC16
AccurateRip v2 signature : B935C90D
->Accurately ripped (v1+v2, confidence 12+3/15)
Statistics
Read error : 0
Jitter error (maybe fixed) : 0
Retry sector count : 0
Damaged sector count : 0
Track 06
Filename : /Volumes/Music/FLAC/Monty Alexander - Caribbean Circle (1992) [FLAC]/06 Cowboy Ska Medley.flac
Pre-gap length : 00:03:62
Track gain : 5.69 dB
Peak : 0.722839
CRC32 hash (test run) : 13337EF2
CRC32 hash : 13337EF2
CRC32 hash (skip zero) : 8504F826
AccurateRip v1 signature : 1D56794A
AccurateRip v2 signature : 7658DFB2
->Accurately ripped (v1+v2, confidence 12+3/15)
Statistics
Read error : 0
Jitter error (maybe fixed) : 0
Retry sector count : 0
Damaged sector count : 0
Track 07
Filename : /Volumes/Music/FLAC/Monty Alexander - Caribbean Circle (1992) [FLAC]/07 Three Little Birds.flac
Pre-gap length : 00:02:57
Track gain : 7.29 dB
Peak : 0.549286
CRC32 hash (test run) : 9EF49BB2
CRC32 hash : 9EF49BB2
CRC32 hash (skip zero) : EDE54B5F
AccurateRip v1 signature : D10A020E
AccurateRip v2 signature : 961ABB5B
->Accurately ripped (v1+v2, confidence 12+3/15)
Statistics
Read error : 0
Jitter error (maybe fixed) : 0
Retry sector count : 0
Damaged sector count : 0
Track 08
Filename : /Volumes/Music/FLAC/Monty Alexander - Caribbean Circle (1992) [FLAC]/08 Oh Why? (In Memory Of M.D. Davis).flac
Pre-gap length : 00:03:15
Track gain : 16.49 dB
Peak : 0.249023
CRC32 hash (test run) : 08CCD10D
CRC32 hash : 08CCD10D
CRC32 hash (skip zero) : 4FEBBE1D
AccurateRip v1 signature : 1A547149
AccurateRip v2 signature : ED9CDC20
->Accurately ripped (v1+v2, confidence 12+3/15)
Statistics
Read error : 0
Jitter error (maybe fixed) : 0
Retry sector count : 0
Damaged sector count : 0
Track 09
Filename : /Volumes/Music/FLAC/Monty Alexander - Caribbean Circle (1992) [FLAC]/09 Satchmo Talk.flac
Pre-gap length : 00:03:27
Track gain : 19.37 dB
Peak : 0.095520
CRC32 hash (test run) : 390CC933
CRC32 hash : 390CC933
CRC32 hash (skip zero) : 687D5985
AccurateRip v1 signature : 2BB1A2A8
AccurateRip v2 signature : 16770C51
->Accurately ripped (v1+v2, confidence 12+3/15)
Statistics
Read error : 0
Jitter error (maybe fixed) : 0
Retry sector count : 0
Damaged sector count : 0
Track 10
Filename : /Volumes/Music/FLAC/Monty Alexander - Caribbean Circle (1992) [FLAC]/10 When The Saints Go Marching In.flac
Pre-gap length : 00:00:35
Track gain : 3.29 dB
Peak : 0.823547
CRC32 hash (test run) : 8863405E
CRC32 hash : 8863405E
CRC32 hash (skip zero) : F9B2E463
AccurateRip v1 signature : 0074592D
AccurateRip v2 signature : D2D7A331
->Accurately ripped (v1+v2, confidence 12+3/15)
Statistics
Read error : 0
Jitter error (maybe fixed) : 0
Retry sector count : 0
Damaged sector count : 0
Track 11
Filename : /Volumes/Music/FLAC/Monty Alexander - Caribbean Circle (1992) [FLAC]/11 Mango Walk (Old Fork Song).flac
Pre-gap length : 00:04:20
Track gain : 11.33 dB
Peak : 0.290649
CRC32 hash (test run) : ED15FAF1
CRC32 hash : ED15FAF1
CRC32 hash (skip zero) : 220F2011
AccurateRip v1 signature : 1FA70521
AccurateRip v2 signature : 571CC676
->Accurately ripped (v1+v2, confidence 12+3/15)
Statistics
Read error : 0
Jitter error (maybe fixed) : 0
Retry sector count : 0
Damaged sector count : 0
Track 12
Filename : /Volumes/Music/FLAC/Monty Alexander - Caribbean Circle (1992) [FLAC]/12 Sweet Georgia Brown.flac
Pre-gap length : 00:04:57
Track gain : 2.19 dB
Peak : 0.999969
CRC32 hash (test run) : 22CE7D9E
CRC32 hash : 22CE7D9E
CRC32 hash (skip zero) : 2A1D5227
AccurateRip v1 signature : F200CD92
AccurateRip v2 signature : 9310ADD2
->Accurately ripped (v1+v2, confidence 12+3/15)
Statistics
Read error : 0
Jitter error (maybe fixed) : 0
Retry sector count : 0
Damaged sector count : 0
No errors occurred
End of status report
 
Содержание индексной карты (.CUE)
TITLE "Caribbean Circle"
PERFORMER "Monty Alexander"
REM GENRE "Jazz"
REM DATE "1992"
REM DISCID AF0DAB0C
FILE "01. Tradewinds Talk.flac" WAVE
TRACK 01 AUDIO
TITLE "Tradewinds Talk"
PREGAP 00:00:37
INDEX 01 00:00:00
TRACK 02 AUDIO
TITLE "Hurricane Come And Gone"
INDEX 00 01:05:00
FILE "02. Hurricane Come And Gone.flac" WAVE
INDEX 01 00:00:00
TRACK 03 AUDIO
TITLE "Caribbean Circle"
INDEX 00 06:43:03
FILE "03. Caribbean Circle.flac" WAVE
INDEX 01 00:00:00
TRACK 04 AUDIO
TITLE "Consider"
INDEX 00 07:10:73
FILE "04. Consider.flac" WAVE
INDEX 01 00:00:00
TRACK 05 AUDIO
TITLE "Cowboys Talk"
INDEX 00 05:01:65
FILE "05. Cowboys Talk.flac" WAVE
INDEX 01 00:00:00
TRACK 06 AUDIO
TITLE "Cowboy Ska Medley"
INDEX 00 01:11:61
FILE "06. Cowboy Ska Medley.flac" WAVE
INDEX 01 00:00:00
TRACK 07 AUDIO
TITLE "Three Little Birds"
INDEX 00 08:42:35
FILE "07. Three Little Birds.flac" WAVE
INDEX 01 00:00:00
TRACK 08 AUDIO
TITLE "Oh Why? (In Memory Of M.D. Davis)"
INDEX 00 04:42:20
FILE "08. Oh Why (In Memory Of M.D. Davis).flac" WAVE
INDEX 01 00:00:00
TRACK 09 AUDIO
TITLE "Satchmo Talk"
INDEX 00 05:45:71
FILE "09. Satchmo Talk.flac" WAVE
INDEX 01 00:00:00
TRACK 10 AUDIO
TITLE "When The Saints Go Marching In"
INDEX 00 01:29:12
FILE "10. When The Saints Go Marching In.flac" WAVE
INDEX 01 00:00:00
TRACK 11 AUDIO
TITLE "Mango Walk (Old Fork Song)"
INDEX 00 07:27:53
FILE "11. Mango Walk (Old Fork Song).flac" WAVE
INDEX 01 00:00:00
TRACK 12 AUDIO
TITLE "Sweet Georgia Brown"
INDEX 00 04:33:18
FILE "12. Sweet Georgia Brown.flac" WAVE
INDEX 01 00:00:00
 
AccurateRip
[CUETools log; Date: 11.02.2013 0:40:01; Version: 2.0.9]
Pregap length 00:00:37.
[CTDB TOCID: LaWwymLcwrcz9l1Y.IMb77FdcR8-] disk not present in database.
[AccurateRip ID: 0019d5ab-00f40ab2-af0dab0c] found.
Track [ CRC ] Status
01 [3ff0ba97] (12/15) Accurately ripped
02 [edcc7e37] (12/15) Accurately ripped
03 [dd3cde1e] (12/15) Accurately ripped
04 [7865ea9e] (12/15) Accurately ripped
05 [0887ac16] (12/15) Accurately ripped
06 [1d56794a] (12/15) Accurately ripped
07 [d10a020e] (12/15) Accurately ripped
08 [1a547149] (12/15) Accurately ripped
09 [2bb1a2a8] (12/15) Accurately ripped
10 [0074592d] (12/15) Accurately ripped
11 [1fa70521] (12/15) Accurately ripped
12 [f200cd92] (12/15) Accurately ripped
Offsetted by -30:
01 [db7ea219] (03/15) No match but offset
02 [c341fc76] (03/15) No match but offset
03 [37557d0d] (03/15) No match but offset
04 [4b87e45c] (03/15) No match but offset
05 [8b587488] (03/15) No match but offset
06 [de59c8e5] (03/15) No match but offset
07 [db49c02b] (03/15) No match but offset
08 [9d49db15] (03/15) No match but offset
09 [9eec544c] (03/15) No match but offset
10 [b7c66975] (03/15) No match but offset
11 [00c3cff0] (03/15) No match but offset
12 [96c707ed] (03/15) No match but offset
Track Peak [ CRC32 ] [W/O NULL]
-- 99,9 [BE39CAB6] [C3F869EB]
01 10,6 [E19BADA5] [73D1E6EB]
02 76,4 [048C394D] [FDDFD80D]
03 64,7 [AF1C168B] [3F1B2C74]
04 28,3 [9FDDFC79] [8CD8FBA4]
05 9,4 [14D6160A] [EF2BB1D6]
06 72,2 [13337EF2] [8504F826]
07 54,9 [9EF49BB2] [EDE54B5F]
08 24,9 [08CCD10D] [4FEBBE1D]
09 9,5 [390CC933] [687D5985]
10 82,3 [8863405E] [F9B2E463]
11 29,0 [ED15FAF1] [220F2011]
12 99,9 [22CE7D9E] [2A1D5227]
Any questions - support@pro-jazz.com.
Есть вопросы - support@pro-jazz.com
16:15
223
Нет комментариев. Ваш будет первым!