Поиск

(Post-Bop, World Fusion, Latin, Contemporary Jazz) [CD] Alfredo Rodriguez (feat. Esperanza Spalding, Henry Cole a.o.) - The Invasion Parade - 2014 [Mack Avenue Records], FLAC (tracks+.cue), lossless

(Post-Bop, World Fusion, Latin, Contemporary Jazz) [CD] Alfredo Rodriguez (feat. Esperanza Spalding, Henry Cole a.o.) - The Invasion Parade - 2014 [Mack Avenue Records], FLAC (tracks+.cue), lossless
Треклист:
aLFrEDO rODrIGUeZ
THE INVASION PArADE Жанр: Post-Bop, World Fusion, Latin, Contemporary Jazz
Страна-производитель диска: USA
Год издания: 2014
Издатель (лейбл): Mack Avenue Records
Номер по каталогу: MAC 1079
Аудиокодек: FLAC (*.flac)
Тип рипа: tracks+.cue
Битрейт аудио: lossless
Продолжительность: 49:18
Источник (релизер): many thanks tdelyon
Наличие сканов в содержимом раздачи: да
Треклист:
1. The Invasion Parade
2. Guantanamera
3. El Guije
4. Santa Barbara
5. Timberobot
6. Quizas, Quizas, Quizas
7. Snails in the Creek
8. Veinte Anos
9. Cubismo
 
Лог создания рипа
Exact Audio Copy V1.0 beta 3 from 29. August 2011
EAC extraction logfile from 20. March 2014, 15:00
Alfredo Rodríguez / The Invasion Parade
Used drive : PHILIPS SPD3400CC Adapter: 3 ID: 0
Read mode : Secure
Utilize accurate stream : Yes
Defeat audio cache : Yes
Make use of C2 pointers : No
Read offset correction : 6
Overread into Lead-In and Lead-Out : No
Fill up missing offset samples with silence : Yes
Delete leading and trailing silent blocks : No
Null samples used in CRC calculations : Yes
Used interface : Installed external ASPI interface
Gap handling : Appended to previous track
Used output format : User Defined Encoder
Selected bitrate : 1024 kBit/s
Quality : High
Add ID3 tag : No
Command line compressor : C:\Program Files (x86)\Exact Audio Copy\FLAC\FLAC.EXE
Additional command line options : -8 -V -T "ARTIST=%artist%" -T "TITLE=%title%" -T "ALBUM=%albumtitle%" -T "DATE=%year%" -T "TRACKNUMBER=%tracknr%" -T "TOTALTRACKS=%numtracks%" -T "GENRE=%genre%" -T "ALBUM ARTIST=%albumartist%" -T "ALBUMARTIST=%albumartist%" -T "COMMENT=EAC V1.0 beta 3, Secure Mode, Test & Copy, AccurateRip, FLAC -8" %source%
TOC of the extracted CD
Track | Start | Length | Start sector | End sector
---------------------------------------------------------
1 | 0:00.00 | 5:34.13 | 0 | 25062
2 | 5:34.13 | 4:43.70 | 25063 | 46357
3 | 10:18.08 | 4:13.53 | 46358 | 65385
4 | 14:31.61 | 7:09.61 | 65386 | 97621
5 | 21:41.47 | 5:50.64 | 97622 | 123935
6 | 27:32.36 | 4:29.64 | 123936 | 144174
7 | 32:02.25 | 6:42.26 | 144175 | 174350
8 | 38:44.51 | 4:58.69 | 174351 | 196769
9 | 43:43.45 | 5:36.26 | 196770 | 221995
Track 1
Filename C:\Rips\01 The Invasion Parade.wav
Pre-gap length 0:00:02.00
Peak level 98.8 %
Extraction speed 2.0 X
Track quality 100.0 %
Test CRC FD92C4B4
Copy CRC FD92C4B4
Track not present in AccurateRip database
Copy OK
Track 2
Filename C:\Rips\02 Guantanamera.wav
Pre-gap length 0:00:00.21
Peak level 98.8 %
Extraction speed 2.2 X
Track quality 100.0 %
Test CRC 18DE32D4
Copy CRC 18DE32D4
Track not present in AccurateRip database
Copy OK
Track 3
Filename C:\Rips\03 El Güije.wav
Pre-gap length 0:00:00.19
Peak level 98.8 %
Extraction speed 2.4 X
Track quality 100.0 %
Test CRC AFD1763B
Copy CRC AFD1763B
Track not present in AccurateRip database
Copy OK
Track 4
Filename C:\Rips\04 A Santa Barbara.wav
Pre-gap length 0:00:00.32
Peak level 98.8 %
Extraction speed 2.8 X
Track quality 100.0 %
Test CRC DAE8F60C
Copy CRC DAE8F60C
Track not present in AccurateRip database
Copy OK
Track 5
Filename C:\Rips\05 Timberobot.wav
Peak level 98.8 %
Extraction speed 3.0 X
Track quality 100.0 %
Test CRC FDA864D1
Copy CRC FDA864D1
Track not present in AccurateRip database
Copy OK
Track 6
Filename C:\Rips\06 Quizás, Quizás, Quizás (Perhaps, Perhaps, Perhaps).wav
Pre-gap length 0:00:00.10
Peak level 84.6 %
Extraction speed 3.1 X
Track quality 100.0 %
Test CRC 76DCAF7A
Copy CRC 76DCAF7A
Track not present in AccurateRip database
Copy OK
Track 7
Filename C:\Rips\07 Snails in the Creek.wav
Peak level 98.8 %
Extraction speed 2.9 X
Track quality 99.9 %
Test CRC 552CBA43
Copy CRC 552CBA43
Track not present in AccurateRip database
Copy OK
Track 8
Filename C:\Rips\08 Veinte Años.wav
Pre-gap length 0:00:00.11
Peak level 80.7 %
Extraction speed 3.5 X
Track quality 100.0 %
Test CRC 2D15A7F9
Copy CRC 2D15A7F9
Track not present in AccurateRip database
Copy OK
Track 9
Filename C:\Rips\09 Cubismo.wav
Pre-gap length 0:00:00.52
Peak level 98.8 %
Extraction speed 3.0 X
Track quality 99.9 %
Test CRC 5BC1D0CF
Copy CRC 5BC1D0CF
Track not present in AccurateRip database
Copy OK
None of the tracks are present in the AccurateRip database
No errors occurred
End of status report
==== Log checksum F57362E6A12013E5782EA568B4D0FE1A4A2F204E96C6F1F2B4775F0B8EB43A65 ====
 
Содержание индексной карты (.CUE)
REM DATE 2014
REM DISCID 6B0B8F09
REM COMMENT "ExactAudioCopy v1.0b3"
PERFORMER "Alfredo Rodriguez"
TITLE "The Invasion Parade"
FILE "01 The Invasion Parade.wav" WAVE
TRACK 01 AUDIO
TITLE "The Invasion Parade"
PERFORMER "Alfredo Rodriguez"
INDEX 01 00:00:00
TRACK 02 AUDIO
TITLE "Guantanamera"
PERFORMER "Alfredo Rodriguez"
INDEX 00 05:33:67
FILE "02 Guantanamera.wav" WAVE
INDEX 01 00:00:00
TRACK 03 AUDIO
TITLE "El Guije"
PERFORMER "Alfredo Rodriguez"
INDEX 00 04:43:51
FILE "03 El Guije.wav" WAVE
INDEX 01 00:00:00
TRACK 04 AUDIO
TITLE "A Santa Barbara"
PERFORMER "Alfredo Rodriguez"
INDEX 00 04:13:21
FILE "04 A Santa Barbara.wav" WAVE
INDEX 01 00:00:00
FILE "05 Timberobot.wav" WAVE
TRACK 05 AUDIO
TITLE "Timberobot"
PERFORMER "Alfredo Rodriguez"
INDEX 01 00:00:00
TRACK 06 AUDIO
TITLE "Quizas, Quizas, Quizas (Perhaps, Perhaps, Perhaps)"
PERFORMER "Alfredo Rodriguez"
INDEX 00 05:50:54
FILE "06 Quizas, Quizas, Quizas (Perhaps, Perhaps, Perhaps).wav" WAVE
INDEX 01 00:00:00
FILE "07 Snails in the Creek.wav" WAVE
TRACK 07 AUDIO
TITLE "Snails in the Creek"
PERFORMER "Alfredo Rodriguez"
INDEX 01 00:00:00
TRACK 08 AUDIO
TITLE "Veinte Anos"
PERFORMER "Alfredo Rodriguez"
INDEX 00 06:42:15
FILE "08 Veinte Anos.wav" WAVE
INDEX 01 00:00:00
TRACK 09 AUDIO
TITLE "Cubismo"
PERFORMER "Alfredo Rodriguez"
INDEX 00 04:58:17
FILE "09 Cubismo.wav" WAVE
INDEX 01 00:00:00
 
Об альбоме
A magnificent journey of artistic rediscovery from the outside looking in. Alfredo Rodriguez is redefining his cultural DNA while embracing a full spectrum of colors one can hear.
Cuban born pianist Alfredo Rodrguez literally lived his music while in his native land. Coming to the United States has given Rodriguez a new perspective and a second chance at creativity that few artists are smart enough to embrace on the first go-round. The Invasion Parade celebrates different styles of Cuban music seldom recorded in the United States along with a wonderful lineup of musicians including a nice cameo from Esperanza Spalding.
Alfredo plays from a deep and rich harmonic palate, subtle nuances of changes are executed with surgical precision while remaining vibrant and at times ethereal. Rodriguez intended a cultural collective with the ensemble cast including Americans, a Puerto Rican and a Bulgarian where all members are bringing their own special talents to the table in an effort not to reinvent the music of a rich cultural heritage but to merely shine a new and exciting light on both a people and a music that has been long misunderstood and in some cases sadly ignored. One can over analyze individual tunes and their importance but they would be missing the message of The Invasion Parade. There is a link between dance and jazz and what I refer to as the beat you hear with your feet. Alfredo Rodriguez is now in his element, this is a musical coming out party. A joyous celebration from the Afro-Cuban to the more modern Cuban style of timba.
The Invasion Parade is a musical unification for all people. A stellar release and easily one of the best for 2014!
(Brent Black, criticaljazz.com)
 
Состав
Alfredo Rodríguez - piano, minimoog voyager synthesizer, percussion
Peter Slavov - double bass
Henry Cole - drums, percussion
Billy Carrion - baritone saxophone
Roman Filiu - alto & soprano saxophone
Javier Porta - flute
Esperanza Spalding - bass, vocals (3, 7)
Pedrito Martínez - percussion, vocals (1, 3, 7, 9)
15:15
749
Нет комментариев. Ваш будет первым!