Вы используете незарегистрированную версию компонента "Вкладки"!

Поиск

(Post-Bop) [WEB] Antonio Sanchez (Miguel Zenon, David Sanchez, Scott Colley) - Live in New York at Jazz Standard - 2010, FLAC (tracks), lossless

(Post-Bop) [WEB] Antonio Sanchez (Miguel Zenon, David Sanchez, Scott Colley) - Live in New York at Jazz Standard - 2010, FLAC (tracks), lossless
Битрейт аудио:
lossless
Треклист:
Antonio Sanchez / Live in New York at Jazz Standard
Жанр: Post-Bop
Носитель: WEB
Год издания: 2010
Издатель (лейбл): CAM Jazz
Номер по каталогу: CAMJ 7826-5
Аудиокодек: FLAC (*.flac)
Тип рипа: tracks
Битрейт аудио: lossless
Продолжительность: 01:05:09 + 00:59:05
Источник: интернет (неизвестен)
Наличие сканов в содержимом раздачи: нет
Треклист:
Disc One:
"Greedy Silence" – 19:05
"H and H" (Pat Metheny) – 16:14
"Ballade" – 12:09
"Revelation" (Miguel Zenón) – 17:39
Disc Two:
"It Will Be Better (Once People Get Here)" – 13:36
"Did You Get It" – 17:53
"The Forgotten Ones" (David Sanchez) – 7:35
"Challenge Within" – 20:00
All compositions by Antonio Sánchez except where noted.
 
Disc One
 
DR
foobar2000 1.3.16 / Замер динамического диапазона (DR) 1.1.1
Дата отчёта: 2019-03-20 15:18:50
--------------------------------------------------------------------------------
Анализ: Antonio Sanchez with David Sanchez, Miguel Zenon, Scott Colley / Antonio Sanchez Live In New York At Jazz Standard (1-3)
Antonio Sanchez with Scott Colley,Pat Metheny, David Sanchez, Miguel Zenon / Antonio Sanchez Live In New York At Jazz Standard (4)
--------------------------------------------------------------------------------
DR Пики RMS Продолжительность трека
--------------------------------------------------------------------------------
DR8 0.00 дБ -11.23 дБ 19:05 01-Greedy Silence
DR12 0.00 дБ -16.72 дБ 12:09 03-Ballade
DR9 0.00 дБ -12.33 дБ 17:40 04-Revelation
DR10 0.00 дБ -13.19 дБ 16:15 02-H And H
--------------------------------------------------------------------------------
Количество треков: 4
Реальные значения DR: DR10
Частота: 44100 Гц
Каналов: 2
Разрядность: 16
Битрейт: 948 кбит/с
Кодек: FLAC
================================================================================
 
Лог проверки качества
-----------------------
DON'T MODIFY THIS FILE
-----------------------
PERFORMER: auCDtect Task Manager, ver. 1.6.0 RC1 build 1.6.0.1
Copyright (c) 2008-2010 y-soft. All rights reserved
http://y-soft.org
ANALYZER: auCDtect: CD records authenticity detector, version 0.8.2
Copyright (c) 2004 Oleg Berngardt. All rights reserved.
Copyright (c) 2004 Alexander Djourik. All rights reserved.
FILE: 04 - Revelation.flac
Size: 118156396 Hash: 739F8844705F113894228248347F6D37 Accuracy: -m0
Conclusion: CDDA 100%
Signature: AA971B4BB602626F45B2A0F8A8651961E4966F5F
FILE: 03 - Ballade.flac
Size: 67509659 Hash: 5FAF9EC778DD9D5649AF19177C1CFF50 Accuracy: -m0
Conclusion: CDDA 100%
Signature: BE8EE2AD5FEADBFD096B0A751F35410A38BF5898
FILE: 02 - H And H.flac
Size: 116787146 Hash: 452C1A075B659CA7750DFF2FA23174E7 Accuracy: -m0
Conclusion: CDDA 100%
Signature: 7AB07B70C1037CA929EB7CC97BE441A4E66B8737
FILE: 01 - Greedy Silence.flac
Size: 140063344 Hash: BBCADFAFC5402522B66CA0D24911DFE7 Accuracy: -m0
Conclusion: CDDA 100%
Signature: 25BFBCFAA455A944B4FB65C3FAD227B03136C0AE
 
Disc Two
 
DR
foobar2000 1.3.16 / Замер динамического диапазона (DR) 1.1.1
Дата отчёта: 2019-03-20 15:19:31
--------------------------------------------------------------------------------
Анализ: Antonio Sanchez with David Sanchez, Miguel Zenon, Scott Colley / Antonio Sanchez Live In New York At Jazz Standard
--------------------------------------------------------------------------------
DR Пики RMS Продолжительность трека
--------------------------------------------------------------------------------
DR8 0.00 дБ -9.76 дБ 13:36 01-It Will Be Better (once People Get Here)
DR11 0.00 дБ -14.43 дБ 17:53 02-Did You Get It?
DR10 -0.22 дБ -13.82 дБ 7:35 03-The Forgotten Ones
DR11 0.00 дБ -13.72 дБ 20:00 04-Challenge Within
--------------------------------------------------------------------------------
Количество треков: 4
Реальные значения DR: DR10
Частота: 44100 Гц
Каналов: 2
Разрядность: 16
Битрейт: 926 кбит/с
Кодек: FLAC
================================================================================
 
Лог проверки качества
-----------------------
DON'T MODIFY THIS FILE
-----------------------
PERFORMER: auCDtect Task Manager, ver. 1.6.0 RC1 build 1.6.0.1
Copyright (c) 2008-2010 y-soft. All rights reserved
http://y-soft.org
ANALYZER: auCDtect: CD records authenticity detector, version 0.8.2
Copyright (c) 2004 Oleg Berngardt. All rights reserved.
Copyright (c) 2004 Alexander Djourik. All rights reserved.
FILE: 04 - Challenge Within.flac
Size: 140306016 Hash: 2E7211CE837AA140C06BCD0A9EBFBE24 Accuracy: -m0
Conclusion: CDDA 100%
Signature: 62589D71B73288529FB5BC576A51BE49FAB17BEB
FILE: 03 - The Forgotten Ones.flac
Size: 49187320 Hash: 510A9ADD89C894224B89C5BDFA70E602 Accuracy: -m0
Conclusion: CDDA 99%
Signature: BC98AE5709E8AC37435DF0BC580118BCF8B29C28
FILE: 02 - Did You Get It_.flac
Size: 125982328 Hash: 1B9C8A265F758948E48F189D0BC23C9A Accuracy: -m0
Conclusion: CDDA 100%
Signature: EEFC407DF543740421F1795299DE6A491C1005F7
FILE: 01 - It Will Be Better (once People Get Here).flac
Size: 106871815 Hash: 6FA14E280C7886B401199AFCB2995431 Accuracy: -m0
Conclusion: CDDA 100%
Signature: 077864A3489E54690CD8ABFA14DCD0148FD10EAD
 
Об альбоме (сборнике)
Live in New York at Jazz Standard is a live album by drummer Antonio Sánchez which was recorded in New York in 2008 and released as a double CD on the CAM Jazz label in 2010
 
Состав
Antonio Sánchez – drums
Miguel Zenón – alto saxophone
David Sánchez – tenor saxophone
Scott Colley – bass
Any questions - support@pro-jazz.com. Есть вопросы - support@pro-jazz.com
19:04
275
Нет комментариев. Ваш будет первым!