Поиск

(Post-Bop, Vocal Jazz) [CD] Rahsaan Roland Kirk & Al Hibbler - A Meeting Of The Times (1972) - 2004, FLAC (tracks+.cue), lossless

(Post-Bop, Vocal Jazz) [CD] Rahsaan Roland Kirk & Al Hibbler - A Meeting Of The Times (1972) - 2004, FLAC (tracks+.cue), lossless
Треклист:
Rahsaan Roland Kirk & Al Hibbler - A Meeting Of The Times (1972) Жанр: Post-Bop, Vocal Jazz
Носитель: CD
Год издания: 2004
Издатель (лейбл): Atlantic
Номер по каталогу: 81227 3689-2
Аудиокодек: FLAC (*.flac)
Тип рипа: tracks+.cue
Битрейт аудио: lossless
Продолжительность: 37:44
Источник:
Наличие сканов в содержимом раздачи: да
Треклист:
01. Do Nothing Till You Hear From Me (4:40)
02. Daybreak (3:12)
03. Lover Come Back To Me (3:49)
04. Don't Get Around Much Anymore (2:57)
05. This Love Of Mine (4:57)
06. Carney And Begard Place (5:33)
07. I Didn't Know About You (4:01)
08. Something 'Bout Believing (6:06)
09. Dream (2:29)
Personnel:
Rahsaan Roland Kirk - tenor saxophone, manzello, stritch, flute, clarinet, baritone saxophone
Al Hibbler - vocals (1-5, 7, 8)
Hank Jones - piano (1-8)
Ron Carter - bass (1-8)
Grady Tate - drums (1-8)
Leon Thomas - vocals (9)
Lonnie Liston Smith - piano (9)
Major Holley - bass (9)
Charles Crosby - drums (9)
Rec.: Atlantic Studios, NY, March 14 (#9), 30 (#2-4, 8) and 31 (#1, 5-7), 1965.
 
 
AllMusic Review by Scott Yanow
On first glance this LP combines together a pair of unlikely musical partners; the unique multi-instrumentalist Rahsaan Roland Kirk and Duke Ellington's former ballad singer Al Hibbler. However Rahsaan was very well acquainted with Ellington's music and he plays respectfully behind Hibbler on many of the standards, taking the wild "Carney and Bigard Place" as an instrumental. Hibbler (who did not record much this late in his career) is in good voice and phrases as eccentrically as ever on such songs as "Do Nothin' Till You Hear from Me," "Don't Get Around Much Anymore" and "I Didn't Know About You." One leftover selection from Rahsaan's session with singer Leon Thomas ("Dream") rounds out this surprising set.
 
 
Лог создания рипа
Exact Audio Copy V0.99 prebeta 5 from 4. May 2009
EAC extraction logfile from 8. August 2011, 11:47
Rahsaan Roland Kirk and Al Hibbler / A Meeting of the Times
Used drive : ASUS DRW-22D1S Adapter: 4 ID: 1
Read mode : Secure
Utilize accurate stream : Yes
Defeat audio cache : Yes
Make use of C2 pointers : No
Read offset correction : 102
Overread into Lead-In and Lead-Out : No
Fill up missing offset samples with silence : Yes
Delete leading and trailing silent blocks : No
Null samples used in CRC calculations : Yes
Used interface : Native Win32 interface for Win NT & 2000
Used output format : Internal WAV Routines
Sample format : 44.100 Hz; 16 Bit; Stereo
TOC of the extracted CD
Track | Start | Length | Start sector | End sector
---------------------------------------------------------
1 | 0:00.00 | 4:39.52 | 0 | 20976
2 | 4:39.52 | 3:11.63 | 20977 | 35364
3 | 7:51.40 | 3:48.52 | 35365 | 52516
4 | 11:40.17 | 2:56.70 | 52517 | 65786
5 | 14:37.12 | 4:56.58 | 65787 | 88044
6 | 19:33.70 | 5:33.10 | 88045 | 113029
7 | 25:07.05 | 4:01.27 | 113030 | 131131
8 | 29:08.32 | 6:06.25 | 131132 | 158606
9 | 35:14.57 | 2:29.00 | 158607 | 169781
Range status and errors
Selected range
Filename D:\Rahsaan Roland Kirk and Al Hibbler - A Meeting of the Times.wav
Peak level 96.3 %
Range quality 100.0 %
Test CRC 503A8537
Copy CRC 503A8537
Copy OK
No errors occurred
AccurateRip summary
Track 1 accurately ripped (confidence 6) [2028B296]
Track 2 accurately ripped (confidence 6) [FEE978D7]
Track 3 accurately ripped (confidence 6) [83A46983]
Track 4 accurately ripped (confidence 6) [F2E8240D]
Track 5 accurately ripped (confidence 6) [987B9787]
Track 6 accurately ripped (confidence 6) [546B4D12]
Track 7 accurately ripped (confidence 6) [4EBB06C5]
Track 8 accurately ripped (confidence 6) [CD0B9B4E]
Track 9 accurately ripped (confidence 6) [53C19216]
All tracks accurately ripped
End of status report
 
Содержание индексной карты (.CUE)
REM GENRE Jazz
REM DATE 1972
REM DISCID 7008D709
REM COMMENT "ExactAudioCopy v0.99pb5"
PERFORMER "Rahsaan Roland Kirk & Al Hibbler"
TITLE "A Meeting Of The Times"
FILE "Rahsaan Roland Kirk & Al Hibbler - A Meeting Of The Times.flac" WAVE
TRACK 01 AUDIO
TITLE "Do Nothing Till You Hear From Me"
PERFORMER "Rahsaan Roland Kirk & Al Hibbler"
INDEX 01 00:00:00
TRACK 02 AUDIO
TITLE "Daybreak"
PERFORMER "Rahsaan Roland Kirk & Al Hibbler"
INDEX 00 04:38:05
INDEX 01 04:39:52
TRACK 03 AUDIO
TITLE "Lover Come Back To Me"
PERFORMER "Rahsaan Roland Kirk & Al Hibbler"
INDEX 00 07:49:67
INDEX 01 07:51:40
TRACK 04 AUDIO
TITLE "Don't Get Around Much Anymore"
PERFORMER "Rahsaan Roland Kirk & Al Hibbler"
INDEX 00 11:38:45
INDEX 01 11:40:17
TRACK 05 AUDIO
TITLE "This Love Of Mine"
PERFORMER "Rahsaan Roland Kirk & Al Hibbler"
INDEX 00 14:35:40
INDEX 01 14:37:12
TRACK 06 AUDIO
TITLE "Carney And Begard Place"
PERFORMER "Rahsaan Roland Kirk & Al Hibbler"
INDEX 00 19:32:22
INDEX 01 19:33:70
TRACK 07 AUDIO
TITLE "I Didn't Know About You"
PERFORMER "Rahsaan Roland Kirk & Al Hibbler"
INDEX 00 25:05:32
INDEX 01 25:07:05
TRACK 08 AUDIO
TITLE "Something 'Bout Believing"
PERFORMER "Rahsaan Roland Kirk & Al Hibbler"
INDEX 00 29:06:60
INDEX 01 29:08:32
TRACK 09 AUDIO
TITLE "Dream"
PERFORMER "Rahsaan Roland Kirk & Al Hibbler"
INDEX 00 35:13:10
INDEX 01 35:14:57
Приватный:
Нет (DHT включён)
Размер:
241.58 Мб (253,312,851 байт) » файлов: 11
Участники:
0 раздают, 0 качают (0 участников всего)
Внешние участники:
1 раздают, 0 качают (1 участников всего) [ Обновить ]
No seeders - write personal message to M0p94ok. Нет сидеров - пишите в личку M0p94ok.
01:56
118
Нет комментариев. Ваш будет первым!