Вы используете незарегистрированную версию компонента "Вкладки"!

Поиск

(Post-Bop, Trombone) [CD] Vincent Gardner - The Good Book, Chapter Two: The Book of Now (feat. Aaron Goldberg, Walter Blanding) - 2011, FLAC (tracks+.cue), lossless

(Post-Bop, Trombone) [CD] Vincent Gardner - The Good Book, Chapter Two: The Book of Now (feat. Aaron Goldberg, Walter Blanding) - 2011, FLAC (tracks+.cue), lossless
Треклист:
Vincent Gardner / The Good Book, Chapter Two: The Book of Now
Жанр: Post-Bop, Trombone
Носитель: CD
Год издания: 2011
Издатель (лейбл): SteepleChase
Номер по каталогу: SCCD 31719
Страна исполнителя (группы): USA
Аудиокодек: FLAC (*.flac)
Тип рипа: tracks+.cue
Битрейт аудио: lossless
Продолжительность: 01:03:04
Источник (релизер): Dewcey
Наличие сканов в содержимом раздачи: нет
Треклист:
1 Servant of the People (Marcus Roberts)
2 Calypso (Kenny Barron)
3 466-64 (Freedom Fighters) (Jeremy Pelt)
4 Speak Low (Kurt Weill)
5 Like a Son (Jimmy Heath)
6 Love Letters (Victor Young)
7 Paper Chase (Anthony Wonsley)
 
Лог создания рипа
Exact Audio Copy V1.0 beta 3 from 29. August 2011
EAC extraction logfile from 27. November 2013, 15:35
Vincent Gardner / The Good Book Chapter Two
Used drive : hp DVD A DL8ATL Adapter: 0 ID: 1
Read mode : Secure
Utilize accurate stream : Yes
Defeat audio cache : Yes
Make use of C2 pointers : No
Read offset correction : 6
Overread into Lead-In and Lead-Out : No
Fill up missing offset samples with silence : Yes
Delete leading and trailing silent blocks : No
Null samples used in CRC calculations : Yes
Used interface : Native Win32 interface for Win NT & 2000
Gap handling : Appended to previous track
Used output format : User Defined Encoder
Selected bitrate : 1024 kBit/s
Quality : High
Add ID3 tag : No
Command line compressor : C:\Exact Audio Copy\Flac\flac.exe
Additional command line options : -8 -V -T "ARTIST=%artist%" -T "TITLE=%title%" -T "ALBUM=%albumtitle%" -T "DATE=%year%" -T "TRACKNUMBER=%tracknr%" -T "GENRE=%genre%" -T "PERFORMER=%albuminterpret%" -T "COMPOSER=%composer%" %haslyrics%--tag-from-file=LYRICS="%lyricsfile%"%haslyrics% -T "ALBUMARTIST=%albumartist%" -T "ALBUM ARTIST=%albumartist%" -T "DISCNUMBER=%cdnumber%" -T "TOTALDISCS=%totalcds%" -T "COMMENT=%comment% EAC V1.0 beta 3, Secure Mode, Test & Copy, AccurateRip, FLAC 8" %source% -o %dest%
TOC of the extracted CD
Track | Start | Length | Start sector | End sector
---------------------------------------------------------
1 | 0:00.00 | 10:04.21 | 0 | 45320
2 | 10:04.21 | 7:49.20 | 45321 | 80515
3 | 17:53.41 | 10:02.09 | 80516 | 125674
4 | 27:55.50 | 9:57.01 | 125675 | 170450
5 | 37:52.51 | 8:39.45 | 170451 | 209420
6 | 46:32.21 | 7:25.16 | 209421 | 242811
7 | 53:57.37 | 9:08.28 | 242812 | 283939
Track 1
Filename C:\___wav\01 - A Servant Of The People.wav
Pre-gap length 0:00:02.00
Peak level 87.2 %
Extraction speed 3.0 X
Track quality 100.0 %
Test CRC 09B399F0
Copy CRC 09B399F0
Accurately ripped (confidence 1) [48EE91CB] (AR v2)
Copy OK
Track 2
Filename C:\___wav\02 - Calypso.wav
Pre-gap length 0:00:02.77
Peak level 92.8 %
Extraction speed 3.6 X
Track quality 100.0 %
Test CRC 453EAA16
Copy CRC 453EAA16
Accurately ripped (confidence 1) [9456ED14] (AR v2)
Copy OK
Track 3
Filename C:\___wav\03 - 466-64 (Freedom Fighters).wav
Pre-gap length 0:00:02.77
Peak level 97.2 %
Extraction speed 4.1 X
Track quality 100.0 %
Test CRC 143DACEE
Copy CRC 143DACEE
Accurately ripped (confidence 1) [DC74E449] (AR v2)
Copy OK
Track 4
Filename C:\___wav\04 - Speak Low.wav
Pre-gap length 0:00:02.77
Peak level 91.0 %
Extraction speed 4.6 X
Track quality 100.0 %
Test CRC C39EDA45
Copy CRC C39EDA45
Accurately ripped (confidence 1) [DEA89F2F] (AR v2)
Copy OK
Track 5
Filename C:\___wav\05 - Like A Son.wav
Pre-gap length 0:00:02.77
Peak level 89.4 %
Extraction speed 4.9 X
Track quality 100.0 %
Test CRC 594102C6
Copy CRC 594102C6
Accurately ripped (confidence 1) [2CB2EAA0] (AR v2)
Copy OK
Track 6
Filename C:\___wav\06 - Love Letters.wav
Pre-gap length 0:00:02.77
Peak level 87.4 %
Extraction speed 4.7 X
Track quality 99.9 %
Test CRC E3A79BAD
Copy CRC E3A79BAD
Accurately ripped (confidence 1) [69C58367] (AR v2)
Copy OK
Track 7
Filename C:\___wav\07 - The Paper Chase.wav
Pre-gap length 0:00:02.77
Peak level 88.0 %
Extraction speed 5.5 X
Track quality 100.0 %
Test CRC 3B81D63B
Copy CRC 3B81D63B
Accurately ripped (confidence 1) [699392C4] (AR v2)
Copy OK
All tracks accurately ripped
No errors occurred
End of status report
---- CUETools DB Plugin V2.1.4
[CTDB TOCID: xz7J5wMA7dQfmOui0EAophw_AK0-] found
Submit result: xz7J5wMA7dQfmOui0EAophw_AK0- has been confirmed
Track | CTDB Status
1 | (1/1) Accurately ripped
2 | (1/1) Accurately ripped
3 | (1/1) Accurately ripped
4 | (1/1) Accurately ripped
5 | (1/1) Accurately ripped
6 | (1/1) Accurately ripped
7 | (1/1) Accurately ripped
==== Log checksum B8FE23EAF9791009AEB49BCC53EB8035D24614DC86669CF11A4D65CF19BDB776 ====
 
Содержание индексной карты (.CUE)
REM GENRE Jazz
REM DATE 2011
REM DISCID 660EC907
REM COMMENT "ExactAudioCopy v1.0b3"
PERFORMER "Vincent Gardner"
TITLE "The Good Book Chapter Two"
FILE "01 - A Servant Of The People.wav" WAVE
TRACK 01 AUDIO
TITLE "A Servant Of The People"
PERFORMER "Vincent Gardner"
ISRC <dPnS1101401
INDEX 01 00:00:00
TRACK 02 AUDIO
TITLE "Calypso"
PERFORMER "Vincent Gardner"
ISRC <dPnS1101402
INDEX 00 10:01:38
FILE "02 - Calypso.wav" WAVE
INDEX 01 00:00:00
TRACK 03 AUDIO
TITLE "466-64 (Freedom Fighters)"
PERFORMER "Vincent Gardner"
ISRC <dPnS1101403
INDEX 00 07:46:37
FILE "03 - 466-64 (Freedom Fighters).wav" WAVE
INDEX 01 00:00:00
TRACK 04 AUDIO
TITLE "Speak Low"
PERFORMER "Vincent Gardner"
ISRC <dPnS1101404
INDEX 00 09:59:26
FILE "04 - Speak Low.wav" WAVE
INDEX 01 00:00:00
TRACK 05 AUDIO
TITLE "Like A Son"
PERFORMER "Vincent Gardner"
ISRC <dPnS1101405
INDEX 00 09:54:18
FILE "05 - Like A Son.wav" WAVE
INDEX 01 00:00:00
TRACK 06 AUDIO
TITLE "Love Letters"
PERFORMER "Vincent Gardner"
ISRC <dPnS1101406
INDEX 00 08:36:62
FILE "06 - Love Letters.wav" WAVE
INDEX 01 00:00:00
TRACK 07 AUDIO
TITLE "The Paper Chase"
PERFORMER "Vincent Gardner"
ISRC <dPnS1101407
INDEX 00 07:22:33
FILE "07 - The Paper Chase.wav" WAVE
INDEX 01 00:00:00
 
Об альбоме (сборнике)
Vincent Gardner's The Good Book series is a refreshing change from many jazz CDs by up-and-coming artists, in that he is not only exploring standards and familiar jazz works, but also overlooked gems by musicians currently on the scene. The trombonist assembled a top-shelf quintet consisting of saxophonist Walter Blanding, pianist Aaron Goldberg, bassist Neil Caine, and drummer Ulysses Owens. It's not every day that someone records one of pianist Marcus Roberts' pieces, but his "A Servant of the People" is a perfect vehicle for Gardner's expressive chops. Fans of Kenny Barron will be very familiar with his "Calypso," a lighthearted, infectious work that showcases Goldberg, Blanding (on soprano), and the leader. Jimmy Heath's compositions have long been favorites of jazz musicians, so the breezy "Like a Son" is another uncovered treasure as well, a hip bop tune with a few twists. Kurt Weill's "Speak Low" has been a standard for decades and Gardner's spacious playing in this easygoing treatment is complemented by Blanding's rich soprano sax. Victor Young's "Love Letters" isn't as well known, though Goldberg's lush backing to Gardner's melancholy horn conveys its message without lyrics in the introduction, though a quick tempo change turns it into an upbeat cooker. It is clear that Vincent Gardner is destined to be one of the greats of his generation on trombone.
allmusic.com
 
Состав
Trombone – Vincent Gardner
Tenor Saxophone, Soprano Saxophone – Walter Blanding
Piano – Aaron Goldberg
Bass – Neil Caine
Drums – Ulysses Owens
Any questions - support@pro-jazz.com. Есть вопросы - support@pro-jazz.com
15:49
282
Нет комментариев. Ваш будет первым!