Поиск

(Post-Bop, Straight-Ahead Jazz) [CD] Irvin Mayfield - Irvin Mayfield (with Donald Harrison Jr., Delfeayo Marsalis, Peter Martin, Adonis Rose, Rueben Rogers, Ellis Marsalis) - 1999, FLAC (tracks+.cue), lossless

(Post-Bop, Straight-Ahead Jazz) [CD] Irvin Mayfield - Irvin Mayfield (with Donald Harrison Jr., Delfeayo Marsalis, Peter Martin, Adonis Rose, Rueben Rogers, Ellis Marsalis) - 1999, FLAC (tracks+.cue), lossless
Треклист:
Irvin Mayfield
with Donald Harrison Jr., Delfeayo Marsalis, Peter Martin, Adonis Rose, Rueben Rogers, Ellis Marsalis Жанр: Post-Bop, Straight-Ahead Jazz
Носитель: CD
Год издания: 1999
Издатель (лейбл): Basin Street Records
Номер по каталогу: BSR 0401-2
Аудиокодек: FLAC (*.flac)
Тип рипа: tracks+.cue
Битрейт аудио: lossless
Продолжительность: 60:35
Источник (релизер): What.cd (Javaguy)
Наличие сканов в содержимом раздачи: да
Треклист:
01. The Great M.D. (9:05)
02. Right Here, Right Now (6:01)
03. Body And Soul (6:33)
04. Immaculate Conception (6:56)
05. Midnight Theme (9:07)
06. You're My Everything (5:42)
07. Lascivious Intervention (8:51)
08. Giant Steps (3:25)
09. Ninth Ward Blues (4:55)
Personnel:
Irvin Mayfield - tp
Delfeayo Marsalis - tb (4)
Stephen Walker - tb (9)
Donald Harrison Jr. - as (1, 2, 4-6)
Aaron Fletcher - as (7, 9)
Peter Martin - p (1, 2, 5-7)
Ellis Marsalis - p (3)
Victor Atkins - p (4, 8, 9)
Rueben Rogers - b (1, 2, 5-7)
David Pulphus - b (4, 8, 9)
Adonis Rose - d (1, 2, 5, 6)
Troy Davis - d (4)
Jaz Sawyer - d (7-9)
 
 
Лог создания рипа
Exact Audio Copy V1.0 beta 6 from 9. April 2015
EAC extraction logfile from 16. January 2016, 21:01
Irvin Mayfield / Irvin Mayfield
Used drive  : HL-DT-STDVDRAM GE24NU40   Adapter: 1  ID: 1
Read mode               : Secure
Utilize accurate stream : Yes
Defeat audio cache      : Yes
Make use of C2 pointers : No
Read offset correction                      : 6
Overread into Lead-In and Lead-Out          : No
Fill up missing offset samples with silence : Yes
Delete leading and trailing silent blocks   : No
Null samples used in CRC calculations       : Yes
Used interface                              : Native Win32 interface for Win NT & 2000
Gap handling                                : Appended to previous track
Used output format              : User Defined Encoder
Selected bitrate                : 1024 kBit/s
Quality                         : High
Add ID3 tag                     : No
Command line compressor         : C:\Program Files (x86)\FLAC\flac.exe
Additional command line options : -8 -V -T "ARTIST=%artist%" -T "TITLE=%title%" -T "ALBUM=%albumtitle%" -T "DATE=%year%" -T "TRACKNUMBER=%tracknr%" -T "GENRE=%genre%" -T "PERFORMER=%albuminterpret%" -T "COMPOSER=%composer%" %haslyrics%--tag-from-file=LYRICS="%lyricsfile%"%haslyrics% -T "ALBUMARTIST=%albumartist%" -T "DISCNUMBER=%cdnumber%" -T "TOTALDISCS=%totalcds%" -T "TOTALTRACKS=%numtracks%" -T "COMMENT=%comment%" %source% -o %dest%
TOC of the extracted CD
     Track |   Start  |  Length  | Start sector | End sector
    ---------------------------------------------------------
        1  |  0:00.00 |  9:04.50 |         0    |    40849
        2  |  9:04.50 |  6:01.05 |     40850    |    67929
        3  | 15:05.55 |  6:33.32 |     67930    |    97436
        4  | 21:39.12 |  6:55.68 |     97437    |   128629
        5  | 28:35.05 |  9:06.50 |    128630    |   169629
        6  | 37:41.55 |  5:42.20 |    169630    |   195299
        7  | 43:24.00 |  8:50.67 |    195300    |   235116
        8  | 52:14.67 |  3:25.25 |    235117    |   250516
        9  | 55:40.17 |  4:54.48 |    250517    |   272614
Track  1
     Filename C:\EAC Rips\Irvin Mayfield - Irvin Mayfield (1999) (Basin Street BSR 0401-2) [FLAC]\1-01 - The Great M.D..wav
     Pre-gap length  0:00:02.00
     Peak level 93.8 %
     Extraction speed 1.1 X
     Track quality 100.0 %
     Test CRC 771B20A6
     Copy CRC 771B20A6
     Accurately ripped (confidence 3)  [D81DCA47]  (AR v2)
     Copy OK
Track  2
     Filename C:\EAC Rips\Irvin Mayfield - Irvin Mayfield (1999) (Basin Street BSR 0401-2) [FLAC]\1-02 - Right Here, Right Now.wav
     Peak level 98.8 %
     Extraction speed 1.3 X
     Track quality 100.0 %
     Test CRC BB3E7EA0
     Copy CRC BB3E7EA0
     Accurately ripped (confidence 3)  [C8BF9A40]  (AR v2)
     Copy OK
Track  3
     Filename C:\EAC Rips\Irvin Mayfield - Irvin Mayfield (1999) (Basin Street BSR 0401-2) [FLAC]\1-03 - Body & Soul.wav
     Pre-gap length  0:00:01.40
     Peak level 98.8 %
     Extraction speed 1.4 X
     Track quality 99.9 %
     Test CRC 0B5ABD0E
     Copy CRC 0B5ABD0E
     Accurately ripped (confidence 3)  [73049D13]  (AR v2)
     Copy OK
Track  4
     Filename C:\EAC Rips\Irvin Mayfield - Irvin Mayfield (1999) (Basin Street BSR 0401-2) [FLAC]\1-04 - Immaculate Conception.wav
     Pre-gap length  0:00:01.09
     Peak level 98.8 %
     Extraction speed 1.6 X
     Track quality 100.0 %
     Test CRC 7154DA8E
     Copy CRC 7154DA8E
     Accurately ripped (confidence 3)  [527B3A2C]  (AR v2)
     Copy OK
Track  5
     Filename C:\EAC Rips\Irvin Mayfield - Irvin Mayfield (1999) (Basin Street BSR 0401-2) [FLAC]\1-05 - Midnight Theme.wav
     Peak level 100.0 %
     Extraction speed 1.8 X
     Track quality 100.0 %
     Test CRC 513619B8
     Copy CRC 513619B8
     Accurately ripped (confidence 3)  [D0742E2C]  (AR v2)
     Copy OK
Track  6
     Filename C:\EAC Rips\Irvin Mayfield - Irvin Mayfield (1999) (Basin Street BSR 0401-2) [FLAC]\1-06 - You're My Everything.wav
     Peak level 98.9 %
     Extraction speed 1.7 X
     Track quality 99.9 %
     Test CRC 700AF2D9
     Copy CRC 700AF2D9
     Accurately ripped (confidence 3)  [737820A9]  (AR v2)
     Copy OK
Track  7
     Filename C:\EAC Rips\Irvin Mayfield - Irvin Mayfield (1999) (Basin Street BSR 0401-2) [FLAC]\1-07 - Lascivious Intervention.wav
     Pre-gap length  0:00:01.24
     Peak level 98.8 %
     Extraction speed 1.9 X
     Track quality 99.9 %
     Test CRC F8B7FD9B
     Copy CRC F8B7FD9B
     Accurately ripped (confidence 3)  [4746BF50]  (AR v2)
     Copy OK
Track  8
     Filename C:\EAC Rips\Irvin Mayfield - Irvin Mayfield (1999) (Basin Street BSR 0401-2) [FLAC]\1-08 - Giant Steps.wav
     Peak level 96.6 %
     Extraction speed 1.9 X
     Track quality 100.0 %
     Test CRC 130C25E6
     Copy CRC 130C25E6
     Accurately ripped (confidence 3)  [F4770406]  (AR v2)
     Copy OK
Track  9
     Filename C:\EAC Rips\Irvin Mayfield - Irvin Mayfield (1999) (Basin Street BSR 0401-2) [FLAC]\1-09 - Ninth Ward Blues.wav
     Pre-gap length  0:00:02.16
     Peak level 97.0 %
     Extraction speed 2.1 X
     Track quality 100.0 %
     Test CRC 9310C109
     Copy CRC 9310C109
     Accurately ripped (confidence 3)  [171231B8]  (AR v2)
     Copy OK
All tracks accurately ripped
No errors occurred
End of status report
---- CUETools DB Plugin V2.1.6
[CTDB TOCID: 9ecHF1n_2QEr.U5c4LmJndQ5LIA-] found
Submit result: 9ecHF1n_2QEr.U5c4LmJndQ5LIA- has been confirmed
Track | CTDB Status
  1   | (1/1) Accurately ripped
  2   | (1/1) Accurately ripped
  3   | (1/1) Accurately ripped
  4   | (1/1) Accurately ripped
  5   | (1/1) Accurately ripped
  6   | (1/1) Accurately ripped
  7   | (1/1) Accurately ripped
  8   | (1/1) Accurately ripped
  9   | (1/1) Accurately ripped
==== Log checksum 6B7A8F1837C98574B8699ADD4480CF1C30C58233535E411649830717AD967499 ====
 
 
Содержание индексной карты (.CUE)
REM GENRE Jazz
REM DATE 1999
REM DISCID 6A0E3209
REM COMMENT "ExactAudioCopy v1.0b6"
PERFORMER "Irvin Mayfield"
TITLE "Irvin Mayfield"
FILE "01. The Great M.D..wav" WAVE
  TRACK 01 AUDIO
    TITLE "The Great M.D."
    PERFORMER "Irvin Mayfield"
    INDEX 01 00:00:00
FILE "02. Right Here, Right Now.wav" WAVE
  TRACK 02 AUDIO
    TITLE "Right Here, Right Now"
    PERFORMER "Irvin Mayfield"
    INDEX 01 00:00:00
  TRACK 03 AUDIO
    TITLE "Body And Soul"
    PERFORMER "Irvin Mayfield"
    INDEX 00 05:59:50
FILE "03. Body And Soul.wav" WAVE
    INDEX 01 00:00:00
  TRACK 04 AUDIO
    TITLE "Immaculate Conception"
    PERFORMER "Irvin Mayfield"
    INDEX 00 06:32:25
FILE "04. Immaculate Conception.wav" WAVE
    INDEX 01 00:00:00
FILE "05. Midnight Theme.wav" WAVE
  TRACK 05 AUDIO
    TITLE "Midnight Theme"
    PERFORMER "Irvin Mayfield"
    INDEX 01 00:00:00
FILE "06. You're My Everything.wav" WAVE
  TRACK 06 AUDIO
    TITLE "You're My Everything"
    PERFORMER "Irvin Mayfield"
    INDEX 01 00:00:00
  TRACK 07 AUDIO
    TITLE "Lascivious Intervention"
    PERFORMER "Irvin Mayfield"
    INDEX 00 05:41:02
FILE "07. Lascivious Intervention.wav" WAVE
    INDEX 01 00:00:00
FILE "08. Giant Steps.wav" WAVE
  TRACK 08 AUDIO
    TITLE "Giant Steps"
    PERFORMER "Irvin Mayfield"
    INDEX 01 00:00:00
  TRACK 09 AUDIO
    TITLE "Ninth Ward Blues"
    PERFORMER "Irvin Mayfield"
    INDEX 00 03:23:13
FILE "09. Ninth Ward Blues.wav" WAVE
    INDEX 01 00:00:00
По всем вопросам пишите личное сообщение пользователю M0p94ok.
05:12
387
Нет комментариев. Ваш будет первым!