Вы используете незарегистрированную версию компонента "Вкладки"!

Поиск

(Post-Bop, Straight-Ahead Jazz) Carl Allen & Manhattan Projects (Nicholas Payton, Vincent Herring, Mulgrew Miller, Dwayne Burno) - The Dark Side Of Dewey - 1992, FLAC (tracks+.cue), lossless

(Post-Bop, Straight-Ahead Jazz) Carl Allen & Manhattan Projects (Nicholas Payton, Vincent Herring, Mulgrew Miller, Dwayne Burno) - The Dark Side Of Dewey - 1992, FLAC (tracks+.cue), lossless
Треклист:
Carl Allen & Manhattan Projects - The Dark Side Of Dewey
Жанр: Post-Bop, Straight-Ahead Jazz
Год записи альбома: 1992, Alfa Music, Inc.
Год издания: 1996
Издатель (лейбл): Evidence Music Inc.
Номер по каталогу: ECD 22138-2
Аудиокодек: FLAC (*.flac)
Тип рипа: tracks+.cue
Битрейт аудио: lossless
Продолжительность: 51:51
Источник: Собственные рипы
Наличие сканов в содержимом раздачи: да
Треклист:
01. Opening Statement - 4:43
02. All Blues - 7:02
03. My Funny Valentine - 7:02
04. Three For Rhonda - 7:03
05. Mr. Wizard - 5:23
06. Dear Old Stockholm - 6:33
07. Just Squeeze Me - 6:32
08. The Dark Side Of Dewey - 7:34
 
МУЗЫКАНТЫ
Carl Allen - Drums
Nicholas Payton - Trumpet
Vincent Herring - Alto & Soprano Saxophones
Mulgrew Miller - Piano
Dwayne Burno - Bass
 
Лог создания рипа
Exact Audio Copy V1.0 beta 3 from 29. August 2011
EAC extraction logfile from 10. July 2013, 19:25
Carl Allen & Manhattan Projects / The Dark Side Of Dewey
Used drive : HL-DT-STDVD-RAM GSA-H55N Adapter: 0 ID: 2
Read mode : Secure
Utilize accurate stream : Yes
Defeat audio cache : Yes
Make use of C2 pointers : No
Read offset correction : 102
Overread into Lead-In and Lead-Out : Yes
Fill up missing offset samples with silence : Yes
Delete leading and trailing silent blocks : No
Null samples used in CRC calculations : Yes
Used interface : Native Win32 interface for Win NT & 2000
Gap handling : Appended to previous track
Used output format : User Defined Encoder
Selected bitrate : 128 kBit/s
Quality : High
Add ID3 tag : No
Command line compressor : G:\Program Files\Exact Audio Copy\Encoder\flac.exe
Additional command line options : -V -8 -T "Genre=%genre%" -T "Artist=%artist%" -T "Title=%title%" -T "Album=%albumtitle%" -T "Date=%year%" -T "Tracknumber=%tracknr%" -T "Comment=EAC1.0b3 FLAC -8" %source%
TOC of the extracted CD
Track | Start | Length | Start sector | End sector
---------------------------------------------------------
1 | 0:00.00 | 4:42.42 | 0 | 21191
2 | 4:42.42 | 7:01.70 | 21192 | 52836
3 | 11:44.37 | 7:02.05 | 52837 | 84491
4 | 18:46.42 | 7:03.15 | 84492 | 116231
5 | 25:49.57 | 5:23.05 | 116232 | 140461
6 | 31:12.62 | 6:33.13 | 140462 | 169949
7 | 37:46.00 | 6:31.67 | 169950 | 199341
8 | 44:17.67 | 7:33.38 | 199342 | 233354
Track 1
Filename F:\WAV\01 - Opening Statement.wav
Pre-gap length 0:00:02.00
Peak level 100.0 %
Extraction speed 3.0 X
Track quality 99.9 %
Test CRC AC995A91
Copy CRC AC995A91
Track not present in AccurateRip database
Copy OK
Track 2
Filename F:\WAV\02 - All Blues.wav
Peak level 75.2 %
Extraction speed 3.8 X
Track quality 99.9 %
Test CRC 9F4FD1DC
Copy CRC 9F4FD1DC
Track not present in AccurateRip database
Copy OK
Track 3
Filename F:\WAV\03 - My Funny Valentine.wav
Peak level 100.0 %
Extraction speed 4.7 X
Track quality 100.0 %
Test CRC 8ED2BAC2
Copy CRC 8ED2BAC2
Track not present in AccurateRip database
Copy OK
Track 4
Filename F:\WAV\04 - Three For Rhonda.wav
Peak level 82.9 %
Extraction speed 4.6 X
Track quality 100.0 %
Test CRC 2901064D
Copy CRC 2901064D
Track not present in AccurateRip database
Copy OK
Track 5
Filename F:\WAV\05 - Mr. Wizard.wav
Pre-gap length 0:00:01.05
Peak level 88.3 %
Extraction speed 5.3 X
Track quality 100.0 %
Test CRC CD8983D9
Copy CRC CD8983D9
Track not present in AccurateRip database
Copy OK
Track 6
Filename F:\WAV\06 - Dear Old Stockholm.wav
Peak level 83.9 %
Extraction speed 5.7 X
Track quality 100.0 %
Test CRC A922408A
Copy CRC A922408A
Track not present in AccurateRip database
Copy OK
Track 7
Filename F:\WAV\07 - Just Squeeze Me.wav
Peak level 90.6 %
Extraction speed 6.0 X
Track quality 100.0 %
Test CRC A93B14F5
Copy CRC A93B14F5
Track not present in AccurateRip database
Copy OK
Track 8
Filename F:\WAV\08 - The Dark Side Of Dewey.wav
Peak level 97.8 %
Extraction speed 6.0 X
Track quality 99.9 %
Test CRC 389B085C
Copy CRC 389B085C
Track not present in AccurateRip database
Copy OK
None of the tracks are present in the AccurateRip database
No errors occurred
End of status report
==== Log checksum D71CA9BBC037EA9F4232B236FA2F0B0B430E0DFB075D6D314F1EFF77109E7183 ====
 
Содержание индексной карты (.CUE)
REM GENRE Jazz
REM DATE 1992
REM DISCID 710C2708
REM COMMENT "ExactAudioCopy v1.0b3"
PERFORMER "Carl Allen & Manhattan Projects"
TITLE "The Dark Side Of Dewey"
FILE "01 - Opening Statement.wav" WAVE
TRACK 01 AUDIO
TITLE "Opening Statement"
PERFORMER "Carl Allen & Manhattan Projects"
ISRC JPAL09207140
INDEX 01 00:00:00
FILE "02 - All Blues.wav" WAVE
TRACK 02 AUDIO
TITLE "All Blues"
PERFORMER "Carl Allen & Manhattan Projects"
ISRC JPAL09207150
INDEX 01 00:00:00
FILE "03 - My Funny Valentine.wav" WAVE
TRACK 03 AUDIO
TITLE "My Funny Valentine"
PERFORMER "Carl Allen & Manhattan Projects"
ISRC JPAL09207160
INDEX 01 00:00:00
FILE "04 - Three For Rhonda.wav" WAVE
TRACK 04 AUDIO
TITLE "Three For Rhonda"
PERFORMER "Carl Allen & Manhattan Projects"
ISRC JPAL09207170
INDEX 01 00:00:00
TRACK 05 AUDIO
TITLE "Mr. Wizard"
PERFORMER "Carl Allen & Manhattan Projects"
ISRC JPAL09207180
INDEX 00 07:02:10
FILE "05 - Mr. Wizard.wav" WAVE
INDEX 01 00:00:00
FILE "06 - Dear Old Stockholm.wav" WAVE
TRACK 06 AUDIO
TITLE "Dear Old Stockholm"
PERFORMER "Carl Allen & Manhattan Projects"
ISRC JPAL09207190
INDEX 01 00:00:00
FILE "07 - Just Squeeze Me.wav" WAVE
TRACK 07 AUDIO
TITLE "Just Squeeze Me"
PERFORMER "Carl Allen & Manhattan Projects"
ISRC JPAL09207200
INDEX 01 00:00:00
FILE "08 - The Dark Side Of Dewey.wav" WAVE
TRACK 08 AUDIO
TITLE "The Dark Side Of Dewey"
PERFORMER "Carl Allen & Manhattan Projects"
ISRC JPAL09207210
INDEX 01 00:00:00
Этот альбом считается трибьютом Майлсу Дэвису, но не настолько, чтобы отразить это в названии.
Any questions - support@pro-jazz.com.
Есть вопросы - support@pro-jazz.com
22:46
202
Нет комментариев. Ваш будет первым!