Поиск

(Post-Bop, Soul) Roland Kirk With Jack McDuff - Kirk's Work {1961} - 2000, FLAC (tracks+.cue), lossless

(Post-Bop, Soul) Roland Kirk With Jack McDuff - Kirk's Work {1961} - 2000, FLAC (tracks+.cue), lossless
Треклист:
•Roland Kirk With Jack McDuff - Kirk's Work {1961}•
Жанр: Post-Bop, Soul
Страна-производитель диска: Россия
Год издания: 2000
Издатель (лейбл): ООО "Дора"
Аудиокодек: FLAC (*.flac)
Тип рипа: tracks+.cue
Битрейт аудио: lossless
Продолжительность: 00:34:38
Источник (релизер): Рип с диска.
Наличие сканов в содержимом раздачи: да
Треклист:
01.Three for Dizzy [05:14]
02.Makin' Whoopee [05:09]
03.Funk Underneath [06:18]
04.Kirk's Work [03:57]
05.Doin' the Sixty-Eight [04:23]
06.Too Late Now [03:54]
07.Skater's Waltz [05:39]
Personnel:
Roland Kirk - tenor sax, manzello, strich, flute, siren
Jack McDuff - Hammond organ
Joe Benjamin - bass
Arthur Taylor - drumsRecorded Van Gelder Studio, Englewood Cliffs, NJ, July 11, 1961.
 
Лог создания рипа
Exact Audio Copy V1.0 beta 3 from 29. August 2011
Отчёт EAC об извлечении, выполненном 22. ноября 2012, 18:38
Roland Kirk with Jack McDuff / Kirk's Work
Дисковод: Optiarc DVD RW AD-5200A Adapter: 0 ID: 0
Режим чтения : Достоверность
Использование точного потока : Да
Отключение кэша аудио : Да
Использование указателей C2 : Нет
Коррекция смещения при чтении : 48
Способность читать области Lead-in и Lead-out : Нет
Заполнение пропущенных сэмплов тишиной : Да
Удаление блоков с тишиной в начале и конце : Нет
При вычислениях CRC использовались нулевые сэмплы : Да
Интерфейс : Встроенный Win32-интерфейс для Win NT/2000
Обработка зазоров : Добавлено к предыдущему треку
Выходной формат : Пользовательский кодировщик
Выбранный битрейт : 128 kBit/s
Качество : Высокий
Добавление ID3-тега : Нет
Утилита сжатия : C:\Program Files\Exact Audio Copy\Flac\flac.exe
Дополнительные параметры : -V -8 -T "Genre=%genre%" -T "Artist=%artist%" -T "Title=%title%" -T "Album=%albumtitle%" -T "Date=%year%" -T "Tracknumber=%tracknr%" -T "Comment=%comment%" %source%
TOC извлечённого CD
Трек | Старт | Длительность | Начальный сектор | Конечный сектор
---------------------------------------------------------------------
1 | 0:00.00 | 5:14.58 | 0 | 23607
2 | 5:14.58 | 5:09.60 | 23608 | 46842
3 | 10:24.43 | 6:18.67 | 46843 | 75259
4 | 16:43.35 | 3:57.15 | 75260 | 93049
5 | 20:40.50 | 4:23.65 | 93050 | 112839
6 | 25:04.40 | 3:54.23 | 112840 | 130412
7 | 28:58.63 | 5:39.62 | 130413 | 155899
Трек 1
Имя файла G:\2000.Roland Kirk With Jack McDuff - Kirk's Work\01. Three for Dizzy.wav
Длина предзазора 0:00:02.00
Пиковый уровень 74.0 %
Скорость извлечения 2.4 X
Качество трека 100.0 %
CRC теста E324BC24
CRC копии E324BC24
Трек не обнаружен в базе AccurateRip
Копирование... OK
Трек 2
Имя файла G:\2000.Roland Kirk With Jack McDuff - Kirk's Work\02. Makin' Whoopee.wav
Пиковый уровень 71.1 %
Скорость извлечения 2.7 X
Качество трека 100.0 %
CRC теста 175688A0
CRC копии 175688A0
Трек не обнаружен в базе AccurateRip
Копирование... OK
Трек 3
Имя файла G:\2000.Roland Kirk With Jack McDuff - Kirk's Work\03. Funk Underneath.wav
Пиковый уровень 61.0 %
Скорость извлечения 3.1 X
Качество трека 100.0 %
CRC теста 28536CB0
CRC копии 28536CB0
Трек не обнаружен в базе AccurateRip
Копирование... OK
Трек 4
Имя файла G:\2000.Roland Kirk With Jack McDuff - Kirk's Work\04. Kirk's Work.wav
Пиковый уровень 70.8 %
Скорость извлечения 3.2 X
Качество трека 100.0 %
CRC теста 6EE7B294
CRC копии 6EE7B294
Трек не обнаружен в базе AccurateRip
Копирование... OK
Трек 5
Имя файла G:\2000.Roland Kirk With Jack McDuff - Kirk's Work\05. Doin' the Sixty-Eight.wav
Пиковый уровень 60.4 %
Скорость извлечения 3.4 X
Качество трека 100.0 %
CRC теста B0B10551
CRC копии B0B10551
Трек не обнаружен в базе AccurateRip
Копирование... OK
Трек 6
Имя файла G:\2000.Roland Kirk With Jack McDuff - Kirk's Work\06. Too Late Now.wav
Пиковый уровень 63.5 %
Скорость извлечения 3.5 X
Качество трека 100.0 %
CRC теста FC7E96E1
CRC копии FC7E96E1
Трек не обнаружен в базе AccurateRip
Копирование... OK
Трек 7
Имя файла G:\2000.Roland Kirk With Jack McDuff - Kirk's Work\07. Skater's Waltz.wav
Пиковый уровень 69.3 %
Скорость извлечения 3.9 X
Качество трека 100.0 %
CRC теста 38A352B2
CRC копии 38A352B2
Трек не обнаружен в базе AccurateRip
Копирование... OK
Ни одного трека нет в базе AccurateRip
Ошибок не произошло
Конец отчёта
==== Контрольная сумма отчёта 494969EB110FBA2AD9E62AF16247E445DF361FB4B0289F70A366EC8EFBF5F206 ====
 
Содержание индексной карты (.CUE)
REM GENRE Jazz
REM DATE 2000
REM DISCID 41081E07
REM COMMENT "ExactAudioCopy v1.0b3"
PERFORMER "Roland Kirk with Jack McDuff"
TITLE "Kirk's Work"
FILE "01. Three for Dizzy.wav" WAVE
TRACK 01 AUDIO
TITLE "Three for Dizzy"
PERFORMER "Roland Kirk with Jack McDuff"
INDEX 01 00:00:00
FILE "02. Makin' Whoopee.wav" WAVE
TRACK 02 AUDIO
TITLE "Makin' Whoopee"
PERFORMER "Roland Kirk with Jack McDuff"
INDEX 01 00:00:00
FILE "03. Funk Underneath.wav" WAVE
TRACK 03 AUDIO
TITLE "Funk Underneath"
PERFORMER "Roland Kirk with Jack McDuff"
INDEX 01 00:00:00
FILE "04. Kirk's Work.wav" WAVE
TRACK 04 AUDIO
TITLE "Kirk's Work"
PERFORMER "Roland Kirk with Jack McDuff"
INDEX 01 00:00:00
FILE "05. Doin' the Sixty-Eight.wav" WAVE
TRACK 05 AUDIO
TITLE "Doin' the Sixty-Eight"
PERFORMER "Roland Kirk with Jack McDuff"
INDEX 01 00:00:00
FILE "06. Too Late Now.wav" WAVE
TRACK 06 AUDIO
TITLE "Too Late Now"
PERFORMER "Roland Kirk with Jack McDuff"
INDEX 01 00:00:00
FILE "07. Skater's Waltz.wav" WAVE
TRACK 07 AUDIO
TITLE "Skater's Waltz"
PERFORMER "Roland Kirk with Jack McDuff"
INDEX 01 00:00:00
 
Tau Analyzer
Приватный:
Нет (DHT включён)
Размер:
196.87 Мб (206,428,364 байт) » файлов: 15
Участники:
0 раздают, 0 качают (0 участников всего)
Внешние участники:
2 раздают, 1 качают (3 участников всего) [ Обновить ]
No seeders - write personal message to M0p94ok. Нет сидеров - пишите в личку M0p94ok.
09:46
107
Нет комментариев. Ваш будет первым!