Поиск

(Post-Bop, Saxophone Jazz) James Carter Organ Trio - At The Crossroads - 2011, FLAC (tracks+.cue), lossless

Треклист:
James Carter Organ Trio - At The Crossroads

Жанр: Post-Bop, Saxophone Jazz
Страна-производитель диска: E.U.
Год издания диска: 2011
Издатель (лейбл): EmArcy
Номер по каталогу: 2776885
Страна: US Detroit, MI
Аудиокодек: FLAC (*.flac)
Тип рипа: tracks+.cue
Битрейт аудио: lossless
Продолжительность: 01:14:43
Источник (релизер): ruskaval
Наличие сканов в содержимом раздачи: да
01. Oh Gee [06:49]
02. JC Off The Set [03:19]
03. Aged Pain [05:26]
04. The Walking Blues [05:21]
05. My Whole Life Through [07:04]
06. Walking The Dog [07:23]
07. Lettuce Toss Yo' Salad [07:00]
08. Misterio [05:09]
09. Ramblin' Blues [04:19]
10. Come Sunday [07:34]
11. Tis The Old Ship of Zion [05:21]
12. The Hard Blues [09:52]
 
Лог создания рипа
Exact Audio Copy V0.99 prebeta 5 from 4. May 2009
EAC extraction logfile from 17. October 2011, 23:48
James Carter Organ Trio / At The Crossroads
Used drive : PHILIPS SPD3400CC Adapter: 3 ID: 0
Read mode : Secure
Utilize accurate stream : Yes
Defeat audio cache : Yes
Make use of C2 pointers : No
Read offset correction : 6
Overread into Lead-In and Lead-Out : No
Fill up missing offset samples with silence : Yes
Delete leading and trailing silent blocks : No
Null samples used in CRC calculations : Yes
Used interface : Installed external ASPI interface
Gap handling : Appended to previous track
Used output format : User Defined Encoder
Selected bitrate : 768 kBit/s
Quality : High
Add ID3 tag : No
Command line compressor : C:\Program Files (x86)\Exact Audio Copy\Flac\flac.exe
Additional command line options : -8 -V -T "ARTIST=%a" -T "TITLE=%t" -T "ALBUM=%g" -T "DATE=%y" -T "TRACKNUMBER=%n" -T "TOTALTRACKS=%x" -T "GENRE=%m" -T "ALBUM ARTIST=%v" -T "ALBUMARTIST=%v" -T "COMMENT=EAC V0.99 prebeta 5, Secure Mode, Test & Copy, Accurat
TOC of the extracted CD
Track | Start | Length | Start sector | End sector
---------------------------------------------------------
1 | 0:00.00 | 6:49.53 | 0 | 30727
2 | 6:49.53 | 3:19.54 | 30728 | 45706
3 | 10:09.32 | 5:26.24 | 45707 | 70180
4 | 15:35.56 | 5:21.69 | 70181 | 94324
5 | 20:57.50 | 7:04.22 | 94325 | 126146
6 | 28:01.72 | 7:23.44 | 126147 | 159415
7 | 35:25.41 | 7:00.37 | 159416 | 190952
8 | 42:26.03 | 5:09.07 | 190953 | 214134
9 | 47:35.10 | 4:19.23 | 214135 | 233582
10 | 51:54.33 | 7:34.52 | 233583 | 267684
11 | 59:29.10 | 5:21.39 | 267685 | 291798
12 | 64:50.49 | 9:52.50 | 291799 | 336248
Track 1
Filename C:\Rips\01 - Oh Gee.wav
Pre-gap length 0:00:02.00
Peak level 100.0 %
Track quality 100.0 %
Test CRC 3F9CDCAA
Copy CRC 3F9CDCAA
Track not present in AccurateRip database
Copy OK
Track 2
Filename C:\Rips\02 - JC Off The Set.wav
Peak level 95.9 %
Track quality 100.0 %
Test CRC 7FCC2DDF
Copy CRC 7FCC2DDF
Track not present in AccurateRip database
Copy OK
Track 3
Filename C:\Rips\03 - Aged Pain.wav
Peak level 95.7 %
Track quality 100.0 %
Test CRC AA32FED4
Copy CRC AA32FED4
Track not present in AccurateRip database
Copy OK
Track 4
Filename C:\Rips\04 - The Walking Blues.wav
Peak level 100.0 %
Track quality 100.0 %
Test CRC 291277BD
Copy CRC 291277BD
Track not present in AccurateRip database
Copy OK
Track 5
Filename C:\Rips\05 - My Whole Life Through.wav
Peak level 95.8 %
Track quality 100.0 %
Test CRC 40B10D09
Copy CRC 40B10D09
Track not present in AccurateRip database
Copy OK
Track 6
Filename C:\Rips\06 - Walking The Dog.wav
Peak level 100.0 %
Track quality 100.0 %
Test CRC A7AB12FF
Copy CRC A7AB12FF
Track not present in AccurateRip database
Copy OK
Track 7
Filename C:\Rips\07 - Lettuce Toss Yo' Salad.wav
Peak level 100.0 %
Track quality 100.0 %
Test CRC D619B852
Copy CRC D619B852
Track not present in AccurateRip database
Copy OK
Track 8
Filename C:\Rips\08 - Misterio.wav
Peak level 98.5 %
Track quality 100.0 %
Test CRC 95462BAC
Copy CRC 95462BAC
Track not present in AccurateRip database
Copy OK
Track 9
Filename C:\Rips\09 - Ramblin' Blues.wav
Peak level 97.5 %
Track quality 99.9 %
Test CRC 94DA4D13
Copy CRC 94DA4D13
Track not present in AccurateRip database
Copy OK
Track 10
Filename C:\Rips\10 - Come Sunday.wav
Peak level 95.5 %
Track quality 100.0 %
Test CRC F35440DA
Copy CRC F35440DA
Track not present in AccurateRip database
Copy OK
Track 11
Filename C:\Rips\11 - Tis The Old Ship of Zion.wav
Peak level 98.6 %
Track quality 100.0 %
Test CRC 5E2037AE
Copy CRC 5E2037AE
Track not present in AccurateRip database
Copy OK
Track 12
Filename C:\Rips\12 - The Hard Blues.wav
Peak level 100.0 %
Track quality 100.0 %
Test CRC 7AA32A83
Copy CRC 7AA32A83
Track not present in AccurateRip database
Copy OK
None of the tracks are present in the AccurateRip database
No errors occurred
End of status report
 
Содержание индексной карты (.CUE)
REM GENRE Jazz
REM DATE 2011
REM DISCID AC11830C
REM COMMENT "ExactAudioCopy v0.99pb5"
PERFORMER "James Carter Organ Trio"
TITLE "At The Crossroads"
FILE "01 - Oh Gee.wav" WAVE
TRACK 01 AUDIO
TITLE "Oh Gee "
PERFORMER "James Carter Organ Trio"
FLAGS DCP
INDEX 01 00:00:00
FILE "02 - JC Off The Set.wav" WAVE
TRACK 02 AUDIO
TITLE "JC Off The Set"
PERFORMER "James Carter Organ Trio"
FLAGS DCP
INDEX 01 00:00:00
FILE "03 - Aged Pain.wav" WAVE
TRACK 03 AUDIO
TITLE "Aged Pain"
PERFORMER "James Carter Organ Trio"
FLAGS DCP
INDEX 01 00:00:00
FILE "04 - The Walking Blues.wav" WAVE
TRACK 04 AUDIO
TITLE "The Walking Blues"
PERFORMER "James Carter Organ Trio"
FLAGS DCP
INDEX 01 00:00:00
FILE "05 - My Whole Life Through.wav" WAVE
TRACK 05 AUDIO
TITLE "My Whole Life Through"
PERFORMER "James Carter Organ Trio"
FLAGS DCP
INDEX 01 00:00:00
FILE "06 - Walking The Dog.wav" WAVE
TRACK 06 AUDIO
TITLE "Walking The Dog"
PERFORMER "James Carter Organ Trio"
FLAGS DCP
INDEX 01 00:00:00
FILE "07 - Lettuce Toss Yo' Salad.wav" WAVE
TRACK 07 AUDIO
TITLE "Lettuce Toss Yo' Salad"
PERFORMER "James Carter Organ Trio"
FLAGS DCP
INDEX 01 00:00:00
FILE "08 - Misterio.wav" WAVE
TRACK 08 AUDIO
TITLE "Misterio"
PERFORMER "James Carter Organ Trio"
FLAGS DCP
INDEX 01 00:00:00
FILE "09 - Ramblin' Blues.wav" WAVE
TRACK 09 AUDIO
TITLE "Ramblin' Blues"
PERFORMER "James Carter Organ Trio"
FLAGS DCP
INDEX 01 00:00:00
FILE "10 - Come Sunday.wav" WAVE
TRACK 10 AUDIO
TITLE "Come Sunday"
PERFORMER "James Carter Organ Trio"
FLAGS DCP
INDEX 01 00:00:00
FILE "11 - Tis The Old Ship of Zion.wav" WAVE
TRACK 11 AUDIO
TITLE "Tis The Old Ship of Zion"
PERFORMER "James Carter Organ Trio"
FLAGS DCP
INDEX 01 00:00:00
FILE "12 - The Hard Blues.wav" WAVE
TRACK 12 AUDIO
TITLE "The Hard Blues"
PERFORMER "James Carter Organ Trio"
FLAGS DCP
INDEX 01 00:00:00
 
Состав
James Carter - saxophones
Leonard King Jr. - drums, vocals (10)
Gerard Gibbs - organ
Приватный:
Нет (DHT включён)
Размер:
497.54 Мб (521,709,389 байт) » файлов: 26
Участники:
0 раздают, 0 качают (0 участников всего)
Внешние участники:
4 раздают, 0 качают (4 участников всего) [ Обновить ]
For power users only: no seeders - write to support@pro-jazz.com. Для power user: нет сидеров - пишите на support@pro-jazz.com.
16:06
105
Нет комментариев. Ваш будет первым!