Поиск

(Post-Bop) Roy Haynes - Quiet Fire {1977-1978} - 2004, APE (tracks+.cue), lossless

(Post-Bop) Roy Haynes - Quiet Fire {1977-1978} - 2004, APE (tracks+.cue), lossless
Треклист:
♦ Roy Haynes - Quiet Fire {1977-1978} ♦
Жанр: Post-Bop
Страна-производитель диска: Россия
Год издания: 2004
Аудиокодек: APE (*.ape)
Тип рипа: tracks+.cue
Битрейт аудио: lossless
Продолжительность: 01:17:55
Источник (релизер): Рип с диска.
Наличие сканов в содержимом раздачи: да
Треклист:
01. Thank You Thank You [06:55]
02. Bullfight [11:13]
03. Quiet Fire [08:13]
04. Processional [05:22]
05. Sweet Song [06:21]
06. Vistalite [05:55]
07. More Pain Than Purpose [05:43]
08. Wonderin' [04:06]
09. Venus Eyes [04:41]
10. Rok Out [06:30]
11. Water Children [06:44]
12. Invitation [06:05]
 
Лог создания рипа
Exact Audio Copy V1.0 beta 3 from 29. August 2011
EAC extraction logfile from 19. April 2013, 15:44
Roy Haynes / Quiet Fire
Used drive : Optiarc DVD RW AD-5200A Adapter: 0 ID: 0
Read mode : Secure
Utilize accurate stream : Yes
Defeat audio cache : Yes
Make use of C2 pointers : No
Read offset correction : 48
Overread into Lead-In and Lead-Out : No
Fill up missing offset samples with silence : Yes
Delete leading and trailing silent blocks : No
Null samples used in CRC calculations : Yes
Used interface : Native Win32 interface for Win NT & 2000
Gap handling : Appended to previous track
Used output format : User Defined Encoder
Selected bitrate : 128 kBit/s
Quality : High
Add ID3 tag : No
Command line compressor : F:\Program Files\Monkey's Audio\wapet.exe
Additional command line options : %dest% -t "Genre=%genre%" -t "Artist=%artist%" -t "Title=%title%" -t "Album=%albumtitle%" -t "Year=%year%" -t "Track=%tracknr%" -t "Comment=%comment%" mac.exe %source% %dest% -c3000
TOC of the extracted CD
Track | Start | Length | Start sector | End sector
---------------------------------------------------------
1 | 0:00.00 | 6:55.60 | 0 | 31184
2 | 6:55.60 | 11:13.62 | 31185 | 81721
3 | 18:09.47 | 8:13.60 | 81722 | 118756
4 | 26:23.32 | 5:22.38 | 118757 | 142944
5 | 31:45.70 | 6:21.47 | 142945 | 171566
6 | 38:07.42 | 5:55.55 | 171567 | 198246
7 | 44:03.22 | 5:43.58 | 198247 | 224029
8 | 49:47.05 | 4:06.25 | 224030 | 242504
9 | 53:53.30 | 4:41.47 | 242505 | 263626
10 | 58:35.02 | 6:30.60 | 263627 | 292936
11 | 65:05.62 | 6:44.00 | 292937 | 323236
12 | 71:49.62 | 6:05.45 | 323237 | 350656
Track 1
Filename F:\2004.Roy Haynes - Quiet Fire\01. Thank You Thank You.wav
Pre-gap length 0:00:02.00
Peak level 100.0 %
Extraction speed 2.6 X
Track quality 100.0 %
Test CRC 180F5E91
Copy CRC 180F5E91
Cannot be verified as accurate (confidence 2) [58F81D87], AccurateRip returned [7130E99F] (AR v2)
Copy OK
Track 2
Filename F:\2004.Roy Haynes - Quiet Fire\02. Bullfight.wav
Peak level 100.0 %
Extraction speed 3.2 X
Track quality 100.0 %
Test CRC F353363A
Copy CRC F353363A
Cannot be verified as accurate (confidence 2) [C7A89B45], AccurateRip returned [FD4B42A8] (AR v2)
Copy OK
Track 3
Filename F:\2004.Roy Haynes - Quiet Fire\03. Quiet Fire.wav
Pre-gap length 0:00:01.22
Peak level 100.0 %
Extraction speed 3.6 X
Track quality 100.0 %
Test CRC 9F5A6505
Copy CRC 9F5A6505
Cannot be verified as accurate (confidence 2) [770C363A], AccurateRip returned [7063DF6E] (AR v2)
Copy OK
Track 4
Filename F:\2004.Roy Haynes - Quiet Fire\04. Processional.wav
Peak level 100.0 %
Extraction speed 3.6 X
Track quality 100.0 %
Test CRC C6F3A456
Copy CRC C6F3A456
Cannot be verified as accurate (confidence 2) [77712ED9], AccurateRip returned [EFC2FE81] (AR v2)
Copy OK
Track 5
Filename F:\2004.Roy Haynes - Quiet Fire\05. Sweet Song.wav
Peak level 99.6 %
Extraction speed 3.8 X
Track quality 100.0 %
Test CRC 196F0F09
Copy CRC 196F0F09
Cannot be verified as accurate (confidence 2) [15AAF10D], AccurateRip returned [6414786D] (AR v2)
Copy OK
Track 6
Filename F:\2004.Roy Haynes - Quiet Fire\06. Vistalite.wav
Pre-gap length 0:00:03.05
Peak level 100.0 %
Extraction speed 4.0 X
Track quality 100.0 %
Test CRC 0C47965F
Copy CRC 0C47965F
Cannot be verified as accurate (confidence 2) [3BD66F5A], AccurateRip returned [A017A8B6] (AR v2)
Copy OK
Track 7
Filename F:\2004.Roy Haynes - Quiet Fire\07. More Pain Than Purpose.wav
Peak level 99.7 %
Extraction speed 3.6 X
Track quality 100.0 %
Test CRC 31A7015F
Copy CRC 31A7015F
Cannot be verified as accurate (confidence 2) [B656102F], AccurateRip returned [9B20A440] (AR v2)
Copy OK
Track 8
Filename F:\2004.Roy Haynes - Quiet Fire\08. Wonderin'.wav
Peak level 100.0 %
Extraction speed 3.6 X
Track quality 99.9 %
Test CRC 8115CB7C
Copy CRC 8115CB7C
Cannot be verified as accurate (confidence 2) [26F9D0C0], AccurateRip returned [F8C50827] (AR v2)
Copy OK
Track 9
Filename F:\2004.Roy Haynes - Quiet Fire\09. Venus Eyes.wav
Peak level 100.0 %
Extraction speed 4.4 X
Track quality 100.0 %
Test CRC 7F23FB2C
Copy CRC 7F23FB2C
Cannot be verified as accurate (confidence 2) [991EB642], AccurateRip returned [4C17335A] (AR v2)
Copy OK
Track 10
Filename F:\2004.Roy Haynes - Quiet Fire\10. Rok Out.wav
Peak level 100.0 %
Extraction speed 4.7 X
Track quality 100.0 %
Test CRC 2E6979CE
Copy CRC 2E6979CE
Cannot be verified as accurate (confidence 2) [9809F445], AccurateRip returned [31064DAC] (AR v2)
Copy OK
Track 11
Filename F:\2004.Roy Haynes - Quiet Fire\11. Water Children.wav
Peak level 100.0 %
Extraction speed 4.9 X
Track quality 100.0 %
Test CRC 9C9F1094
Copy CRC 9C9F1094
Track not present in AccurateRip database
Copy OK
Track 12
Filename F:\2004.Roy Haynes - Quiet Fire\12. Invitation.wav
Pre-gap length 0:00:01.30
Peak level 100.0 %
Extraction speed 5.2 X
Track quality 100.0 %
Test CRC A639807A
Copy CRC A639807A
Track not present in AccurateRip database
Copy OK
10 трек(и) не удалось проверить на точность
2 трек(и) не содержатся в базе AccurateRip
No tracks could be verified as accurate
You may have a different pressing from the one(s) in the database
No errors occurred
End of status report
==== Log checksum 6A9E5DC2D0FC71944427081408BABD79B35AB39E0ECDC6EFFF3C72A33B8F82A3 ====
 
Содержание индексной карты (.CUE)
REM GENRE Jazz
REM DATE 2004
REM DISCID B812430C
REM COMMENT "ExactAudioCopy v1.0b3"
PERFORMER "Roy Haynes"
TITLE "Quiet Fire "
FILE "01. Thank You Thank You.wav" WAVE
TRACK 01 AUDIO
TITLE "Thank You Thank You"
PERFORMER "Roy Haynes"
ISRC USFI87700535
INDEX 01 00:00:00
FILE "02. Bullfight.wav" WAVE
TRACK 02 AUDIO
TITLE "Bullfight"
PERFORMER "Roy Haynes"
ISRC USFI87700536
INDEX 01 00:00:00
TRACK 03 AUDIO
TITLE "Quiet Fire"
PERFORMER "Roy Haynes"
ISRC USFI87700537
INDEX 00 11:12:40
FILE "03. Quiet Fire.wav" WAVE
INDEX 01 00:00:00
FILE "04. Processional.wav" WAVE
TRACK 04 AUDIO
TITLE "Processional"
PERFORMER "Roy Haynes"
ISRC USFI87700538
INDEX 01 00:00:00
FILE "05. Sweet Song.wav" WAVE
TRACK 05 AUDIO
TITLE "Sweet Song"
PERFORMER "Roy Haynes"
ISRC USFI87700539
INDEX 01 00:00:00
TRACK 06 AUDIO
TITLE "Vistalite"
PERFORMER "Roy Haynes"
ISRC USFI87900396
INDEX 00 06:18:42
FILE "06. Vistalite.wav" WAVE
INDEX 01 00:00:00
FILE "07. More Pain Than Purpose.wav" WAVE
TRACK 07 AUDIO
TITLE "More Pain Than Purpose"
PERFORMER "Roy Haynes"
ISRC USFI87900397
INDEX 01 00:00:00
FILE "08. Wonderin'.wav" WAVE
TRACK 08 AUDIO
TITLE "Wonderin'"
PERFORMER "Roy Haynes"
ISRC USFI87900398
INDEX 01 00:00:00
FILE "09. Venus Eyes.wav" WAVE
TRACK 09 AUDIO
TITLE "Venus Eyes"
PERFORMER "Roy Haynes"
ISRC USFI87900399
INDEX 01 00:00:00
FILE "10. Rok Out.wav" WAVE
TRACK 10 AUDIO
TITLE "Rok Out"
PERFORMER "Roy Haynes"
ISRC USFI87900400
INDEX 01 00:00:00
FILE "11. Water Children.wav" WAVE
TRACK 11 AUDIO
TITLE "Water Children"
PERFORMER "Roy Haynes"
ISRC USFI87900401
INDEX 01 00:00:00
TRACK 12 AUDIO
TITLE "Invitation"
PERFORMER "Roy Haynes"
ISRC USFI87900402
INDEX 00 06:42:45
FILE "12. Invitation.wav" WAVE
INDEX 01 00:00:00
Приватный:
Нет (DHT включён)
Размер:
448.07 Мб (469,830,409 байт) » файлов: 20
Участники:
0 раздают, 0 качают (0 участников всего)
Внешние участники:
5 раздают, 1 качают (6 участников всего) [ Обновить ]
For power users only: no seeders - write to support@pro-jazz.com. Для power user: нет сидеров - пишите на support@pro-jazz.com.
19:01
96
Нет комментариев. Ваш будет первым!