Поиск

(Post-Bop) Roland Kirk - Introducing Roland Kirk {1960} - 1990, FLAC (tracks+.cue), lossless

(Post-Bop) Roland Kirk - Introducing Roland Kirk {1960} - 1990, FLAC (tracks+.cue), lossless
Треклист:
•Roland Kirk - Introducing Roland Kirk {1960}•
Жанр: Post-Bop
Страна-производитель диска: USA
Год издания: 1990
Издатель (лейбл): Chess Records
Номер по каталогу: CHD-91551
Аудиокодек: FLAC (*.flac)
Тип рипа: tracks+.cue
Битрейт аудио: lossless
Продолжительность: 00:37:16
Источник (релизер): Рип с диска.
Наличие сканов в содержимом раздачи: да
Треклист:
01. The Call [08:45]
02. Soul Station [05:30]
03. Our Waltz [04:53]
04. Our Love Is Here To Stay [04:51]
05. Spirit Girl [05:24]
06. Jack The Ripper [07:51]
Personnel:
Roland Kirk - ts, strich, manzello, whistle
Ira Sullivan - tp, ts
William Burton - organ, p
Don Garrett - b
Sonny Brown - drRecorded in Chicago, June 7, 1960.
 
Лог создания рипа
Exact Audio Copy V1.0 beta 3 from 29. August 2011
Отчёт EAC об извлечении, выполненном 15. августа 2012, 8:18
Roland Kirk / Introducing Roland Kirk
Дисковод: Optiarc DVD RW AD-5200A Adapter: 0 ID: 0
Режим чтения : Достоверность
Использование точного потока : Да
Отключение кэша аудио : Да
Использование указателей C2 : Нет
Коррекция смещения при чтении : 48
Способность читать области Lead-in и Lead-out : Нет
Заполнение пропущенных сэмплов тишиной : Да
Удаление блоков с тишиной в начале и конце : Нет
При вычислениях CRC использовались нулевые сэмплы : Да
Интерфейс : Встроенный Win32-интерфейс для Win NT/2000
Обработка зазоров : Добавлено к предыдущему треку
Выходной формат : Пользовательский кодировщик
Выбранный битрейт : 128 kBit/s
Качество : Высокий
Добавление ID3-тега : Нет
Утилита сжатия : C:\Program Files\Exact Audio Copy\Flac\flac.exe
Дополнительные параметры : -V -8 -T "Genre=%genre%" -T "Artist=%artist%" -T "Title=%title%" -T "Album=%albumtitle%" -T "Date=%year%" -T "Tracknumber=%tracknr%" -T "Comment=%comment%" %source%
TOC извлечённого CD
Трек | Старт | Длительность | Начальный сектор | Конечный сектор
---------------------------------------------------------------------
1 | 0:00.00 | 8:45.37 | 0 | 39411
2 | 8:45.37 | 5:30.20 | 39412 | 64181
3 | 14:15.57 | 4:53.40 | 64182 | 86196
4 | 19:09.22 | 4:51.10 | 86197 | 108031
5 | 24:00.32 | 5:24.20 | 108032 | 132351
6 | 29:24.52 | 7:51.65 | 132352 | 167741
Трек 1
Имя файла F:\1990.Roland Kirk - Introducing Roland Kirk\01. The Call.wav
Длина предзазора 0:00:02.00
Пиковый уровень 78.3 %
Скорость извлечения 2.7 X
Качество трека 100.0 %
CRC теста 35B93D2F
CRC копии 35B93D2F
Точное извлечение (достоверность 2) [4D70C297] (AR v2)
Копирование... OK
Трек 2
Имя файла F:\1990.Roland Kirk - Introducing Roland Kirk\02. Soul Station.wav
Длина предзазора 0:00:04.27
Пиковый уровень 84.1 %
Скорость извлечения 3.0 X
Качество трека 100.0 %
CRC теста 69C17BBF
CRC копии 69C17BBF
Точное извлечение (достоверность 2) [4B3113EE] (AR v2)
Копирование... OK
Трек 3
Имя файла F:\1990.Roland Kirk - Introducing Roland Kirk\03. Our Waltz.wav
Длина предзазора 0:00:04.45
Пиковый уровень 75.0 %
Скорость извлечения 3.2 X
Качество трека 100.0 %
CRC теста A8E54AA5
CRC копии A8E54AA5
Точное извлечение (достоверность 2) [F43BDA68] (AR v2)
Копирование... OK
Трек 4
Имя файла F:\1990.Roland Kirk - Introducing Roland Kirk\04. Our Love Is Here To Stay.wav
Длина предзазора 0:00:02.65
Пиковый уровень 78.8 %
Скорость извлечения 3.0 X
Качество трека 99.9 %
CRC теста 2461B3A4
CRC копии 2461B3A4
Точное извлечение (достоверность 2) [47E89404] (AR v2)
Копирование... OK
Трек 5
Имя файла F:\1990.Roland Kirk - Introducing Roland Kirk\05. Spirit Girl.wav
Длина предзазора 0:00:01.45
Пиковый уровень 79.1 %
Скорость извлечения 3.5 X
Качество трека 100.0 %
CRC теста 34C6D6FB
CRC копии 34C6D6FB
Точное извлечение (достоверность 2) [95758E40] (AR v2)
Копирование... OK
Трек 6
Имя файла F:\1990.Roland Kirk - Introducing Roland Kirk\06. Jack The Ripper.wav
Длина предзазора 0:00:03.65
Пиковый уровень 79.8 %
Скорость извлечения 3.6 X
Качество трека 100.0 %
CRC теста E677174B
CRC копии E677174B
Точное извлечение (достоверность 2) [77B72433] (AR v2)
Копирование... OK
Все треки извлечены точно
Ошибок не произошло
Конец отчёта
==== Контрольная сумма отчёта 1AF53AB95873C0790D6B7FCD4DF0C8D40AFEB719E0E38284D0C5F5DB51107F29 ====
 
Содержание индексной карты (.CUE)
REM GENRE Jazz
REM DATE 1960
REM DISCID 4B08BC06
REM COMMENT "ExactAudioCopy v1.0b3"
PERFORMER "Roland Kirk"
TITLE "Introducing Roland Kirk"
FILE "01. The Call.wav" WAVE
TRACK 01 AUDIO
TITLE "The Call"
PERFORMER "Roland Kirk"
INDEX 01 00:00:00
TRACK 02 AUDIO
TITLE "Soul Station"
PERFORMER "Roland Kirk"
INDEX 00 08:41:10
FILE "02. Soul Station.wav" WAVE
INDEX 01 00:00:00
TRACK 03 AUDIO
TITLE "Our Waltz"
PERFORMER "Roland Kirk"
INDEX 00 05:25:50
FILE "03. Our Waltz.wav" WAVE
INDEX 01 00:00:00
TRACK 04 AUDIO
TITLE "Our Love Is Here To Stay"
PERFORMER "Roland Kirk"
INDEX 00 04:50:50
FILE "04. Our Love Is Here To Stay.wav" WAVE
INDEX 01 00:00:00
TRACK 05 AUDIO
TITLE "Spirit Girl"
PERFORMER "Roland Kirk"
INDEX 00 04:49:40
FILE "05. Spirit Girl.wav" WAVE
INDEX 01 00:00:00
TRACK 06 AUDIO
TITLE "Jack The Ripper"
PERFORMER "Roland Kirk"
INDEX 00 05:20:30
FILE "06. Jack The Ripper.wav" WAVE
INDEX 01 00:00:00
Приватный:
Нет (DHT включён)
Размер:
234.46 Мб (245,853,682 байт) » файлов: 16
Участники:
0 раздают, 0 качают (0 участников всего)
Внешние участники:
1 раздают, 0 качают (1 участников всего) [ Обновить ]
No seeders - write personal message to M0p94ok. Нет сидеров - пишите в личку M0p94ok.
05:26
120
Нет комментариев. Ваш будет первым!