Поиск

(Post-Bop) Rahsaan Roland Kirk - Domino (1962) - 2000, FLAC (tracks+.cue) lossless

(Post-Bop) Rahsaan Roland Kirk - Domino (1962) - 2000, FLAC (tracks+.cue) lossless
Треклист:
Rahsaan Roland Kirk – Domino (1962)
Жанр: Post-Bop
Год издания диска: 2000
Лейбл: Verve
Номер по каталогу: 543 833-2
Аудио кодек: FLAC (*.flac)
Тип рипа: tracks+.cue
Битрейт аудио: lossless
Продолжительность: 79:45
Источник: вата
Сканы есть
Треклист:
01. Domino (3:16)
02. Meeting On Termini's Corner (3:41)
03. Time (3:14)
04. Lament (3:40)
05. A Stritch In Time (5:07)
06. 3-In-1 Without The Oil (2:36)
07. Get Out Of Town (4:50)
08. Rolando (3:47)
09. I Believe In You (4:27)
10. E.D. (2:36)
11. Where Monk And Mingus Live / Let's Call This (4:12)
12. Domino (4:08)
13. I Didn't Know What Time It Was (3:16)
14. I Didn't Know What Time It Was (2:18)
15. I Didn't Know What Time It Was (2:21)
16. Someone To Watch Over Me (2:38)
17. Someone To Watch Over Me (3:38)
18. Termini's Corner (2:36)
19. Termini's Corner (2:28)
20. Termini's Corner (2:46)
21. Termini's Corner (4:11)
22. When The Sun Comes Out (2:49)
23. When The Sun Comes Out (2:05)
24. When The Sun Comes Out (2:44)
25. Time Races With Emit (0:22)
 
 
Лог создания рипа
Exact Audio Copy V0.99 prebeta 4 from 23. January 2008
EAC extraction logfile from 4. May 2009, 21:26
Roland Kirk / Domino
Used drive : HL-DT-STDVDRAM GSA-4167B Adapter: 0 ID: 0
Read mode : Secure
Utilize accurate stream : Yes
Defeat audio cache : Yes
Make use of C2 pointers : No
Read offset correction : 667
Overread into Lead-In and Lead-Out : No
Fill up missing offset samples with silence : Yes
Delete leading and trailing silent blocks : No
Null samples used in CRC calculations : Yes
Used interface : Native Win32 interface for Win NT & 2000
Gap handling : Appended to previous track
Used output format : User Defined Encoder
Selected bitrate : 128 kBit/s
Quality : High
Add ID3 tag : No
Command line compressor : D:\Program Files\Exact Audio Copy\Flac\flac.exe
Additional command line options : -V -8 -T "ARTIST=%a" -T "TITLE=%t" -T "ALBUM=%g" -T "DATE=%y" -T "TRACKNUMBER=%n" -T "GENRE=%m" -T "COMMENT=EAC FLAC -8" %s
TOC of the extracted CD
Track | Start | Length | Start sector | End sector
---------------------------------------------------------
1 | 0:00.00 | 3:16.07 | 0 | 14706
2 | 3:16.07 | 3:41.23 | 14707 | 31304
3 | 6:57.30 | 3:13.42 | 31305 | 45821
4 | 10:10.72 | 3:40.33 | 45822 | 62354
5 | 13:51.30 | 5:06.55 | 62355 | 85359
6 | 18:58.10 | 2:35.40 | 85360 | 97024
7 | 21:33.50 | 4:49.72 | 97025 | 118771
8 | 26:23.47 | 3:47.20 | 118772 | 135816
9 | 30:10.67 | 4:26.53 | 135817 | 155819
10 | 34:37.45 | 2:36.00 | 155820 | 167519
11 | 37:13.45 | 4:12.05 | 167520 | 186424
12 | 41:25.50 | 4:07.60 | 186425 | 205009
13 | 45:33.35 | 3:15.55 | 205010 | 219689
14 | 48:49.15 | 2:18.17 | 219690 | 230056
15 | 51:07.32 | 2:21.20 | 230057 | 240651
16 | 53:28.52 | 2:37.43 | 240652 | 252469
17 | 56:06.20 | 3:38.20 | 252470 | 268839
18 | 59:44.40 | 2:35.65 | 268840 | 280529
19 | 62:20.30 | 2:28.22 | 280530 | 291651
20 | 64:48.52 | 2:45.53 | 291652 | 304079
21 | 67:34.30 | 4:10.45 | 304080 | 322874
22 | 71:45.00 | 2:48.52 | 322875 | 335526
23 | 74:33.52 | 2:05.30 | 335527 | 344931
24 | 76:39.07 | 2:44.00 | 344932 | 357231
25 | 79:23.07 | 0:22.28 | 357232 | 358909
Track 1
Filename H:\0 Rip\01 - Domino.wav
Pre-gap length 0:00:02.00
Peak level 99.9 %
Track quality 100.0 %
Test CRC F288AFBC
Copy CRC F288AFBC
Copy OK
Track 2
Filename H:\0 Rip\02 - Meeting On Termini's Corner.wav
Pre-gap length 0:00:04.93
Peak level 99.9 %
Track quality 100.0 %
Test CRC DA4D26F0
Copy CRC DA4D26F0
Copy OK
Track 3
Filename H:\0 Rip\03 - Time.wav
Pre-gap length 0:00:02.73
Peak level 99.9 %
Track quality 100.0 %
Test CRC 6C2D2E20
Copy CRC 6C2D2E20
Copy OK
Track 4
Filename H:\0 Rip\04 - Lament.wav
Pre-gap length 0:00:03.06
Peak level 99.9 %
Track quality 100.0 %
Test CRC 58218993
Copy CRC 58218993
Copy OK
Track 5
Filename H:\0 Rip\05 - A Stritch In Time.wav
Pre-gap length 0:00:03.13
Peak level 95.8 %
Track quality 100.0 %
Test CRC 7A281A82
Copy CRC 7A281A82
Copy OK
Track 6
Filename H:\0 Rip\06 - 3-In-1 Without The Oil.wav
Pre-gap length 0:00:03.00
Peak level 99.9 %
Track quality 100.0 %
Test CRC D3558E88
Copy CRC D3558E88
Copy OK
Track 7
Filename H:\0 Rip\07 - Get Out Of Town.wav
Pre-gap length 0:00:03.40
Peak level 99.9 %
Track quality 100.0 %
Test CRC F82B96C0
Copy CRC F82B96C0
Copy OK
Track 8
Filename H:\0 Rip\08 - Rolando.wav
Pre-gap length 0:00:03.13
Peak level 97.9 %
Track quality 100.0 %
Test CRC 5D5F02BD
Copy CRC 5D5F02BD
Copy OK
Track 9
Filename H:\0 Rip\09 - I Believe In You.wav
Pre-gap length 0:00:03.06
Peak level 96.7 %
Track quality 100.0 %
Test CRC CE1AC75F
Copy CRC CE1AC75F
Copy OK
Track 10
Filename H:\0 Rip\10 - E.D..wav
Pre-gap length 0:00:03.13
Peak level 99.2 %
Track quality 100.0 %
Test CRC 2A508AD2
Copy CRC 2A508AD2
Copy OK
Track 11
Filename H:\0 Rip\11 - Where Monk And Mingus Live,Let's Call This (Bonus Track).wav
Pre-gap length 0:00:15.50
Peak level 98.7 %
Track quality 100.0 %
Test CRC BD76B98F
Copy CRC BD76B98F
Copy OK
Track 12
Filename H:\0 Rip\12 - Domino - Alternate Version (Bonus Track).wav
Pre-gap length 0:00:05.64
Peak level 99.3 %
Track quality 100.0 %
Test CRC B7C1B364
Copy CRC B7C1B364
Copy OK
Track 13
Filename H:\0 Rip\13 - I Didn't Know What Time It Was (Bonus Track).wav
Pre-gap length 0:00:04.24
Peak level 99.4 %
Track quality 100.0 %
Test CRC 808DE6DE
Copy CRC 808DE6DE
Copy OK
Track 14
Filename H:\0 Rip\14 - I Didn't Know What Time It Was (Bonus Track)(2).wav
Pre-gap length 0:00:02.90
Peak level 99.9 %
Track quality 100.0 %
Test CRC 5228D597
Copy CRC 5228D597
Copy OK
Track 15
Filename H:\0 Rip\15 - I Didn't Know What Time It Was (Bonus Track)(3).wav
Pre-gap length 0:00:02.53
Peak level 95.8 %
Track quality 100.0 %
Test CRC 7A7E446C
Copy CRC 7A7E446C
Copy OK
Track 16
Filename H:\0 Rip\16 - Someone To Watch Over Me - Breakdown Take (Bonus Track).wav
Pre-gap length 0:00:03.00
Peak level 81.5 %
Track quality 100.0 %
Test CRC 4EA956C2
Copy CRC 4EA956C2
Copy OK
Track 17
Filename H:\0 Rip\17 - Someone To Watch Over Me (Bonus Track).wav
Pre-gap length 0:00:03.70
Peak level 83.1 %
Track quality 100.0 %
Test CRC 29A59C39
Copy CRC 29A59C39
Copy OK
Track 18
Filename H:\0 Rip\18 - Termini's Corner (Bonus Track).wav
Pre-gap length 0:00:03.40
Peak level 95.5 %
Track quality 100.0 %
Test CRC 1AB24B15
Copy CRC 1AB24B15
Copy OK
Track 19
Filename H:\0 Rip\19 - Termini's Corner (Bonus Track)(2).wav
Pre-gap length 0:00:03.46
Peak level 95.9 %
Track quality 100.0 %
Test CRC DBE394BD
Copy CRC DBE394BD
Copy OK
Track 20
Filename H:\0 Rip\20 - Termini's Corner (Bonus Track)(3).wav
Pre-gap length 0:00:04.13
Peak level 99.1 %
Track quality 99.9 %
Test CRC A3C09573
Copy CRC A3C09573
Copy OK
Track 21
Filename H:\0 Rip\21 - Termini's Corner - Breakdown Take and Intercuts (Bonus Track).wav
Pre-gap length 0:00:06.90
Peak level 92.2 %
Track quality 100.0 %
Test CRC 3327FF4F
Copy CRC 3327FF4F
Copy OK
Track 22
Filename H:\0 Rip\22 - When The Sun Comes Out (Bonus Track).wav
Pre-gap length 0:00:04.10
Peak level 94.0 %
Track quality 99.9 %
Test CRC F62A739D
Copy CRC F62A739D
Copy OK
Track 23
Filename H:\0 Rip\23 - When The Sun Comes Out (Bonus Track)(2).wav
Pre-gap length 0:00:10.53
Peak level 93.5 %
Track quality 100.0 %
Test CRC BDC847AF
Copy CRC BDC847AF
Copy OK
Track 24
Filename H:\0 Rip\24 - When The Sun Comes Out (Bonus Track)(3).wav
Pre-gap length 0:00:11.29
Peak level 94.0 %
Track quality 100.0 %
Test CRC E7E67460
Copy CRC E7E67460
Copy OK
Track 25
Filename H:\0 Rip\25 - Time Races With Emit (Bonus Track).wav
Pre-gap length 0:00:02.89
Peak level 95.1 %
Track quality 100.0 %
Test CRC 26F3C362
Copy CRC 26F3C362
Copy OK
No errors occurred
End of status report
 
Содержание индексной карты (.CUE)
REM GENRE Jazz
REM DATE 1962
REM DISCID 7B12B119
REM COMMENT "ExactAudioCopy v0.99pb4"
PERFORMER "Roland Kirk"
TITLE "Domino"
FILE "01. Domino.flac" WAVE
TRACK 01 AUDIO
TITLE "Domino"
PERFORMER "Roland Kirk"
INDEX 01 00:00:00
TRACK 02 AUDIO
TITLE "Meeting On Termini's Corner"
PERFORMER "Roland Kirk"
INDEX 00 03:11:12
FILE "02. Meeting On Termini's Corner.flac" WAVE
INDEX 01 00:00:00
TRACK 03 AUDIO
TITLE "Time"
PERFORMER "Roland Kirk"
INDEX 00 03:38:43
FILE "03. Time.flac" WAVE
INDEX 01 00:00:00
TRACK 04 AUDIO
TITLE "Lament"
PERFORMER "Roland Kirk"
INDEX 00 03:10:37
FILE "04. Lament.flac" WAVE
INDEX 01 00:00:00
TRACK 05 AUDIO
TITLE "A Stritch In Time"
PERFORMER "Roland Kirk"
INDEX 00 03:37:23
FILE "05. A Stritch In Time.flac" WAVE
INDEX 01 00:00:00
TRACK 06 AUDIO
TITLE "3-In-1 Without The Oil"
PERFORMER "Roland Kirk"
INDEX 00 05:03:55
FILE "06. 3-In-1 Without The Oil.flac" WAVE
INDEX 01 00:00:00
TRACK 07 AUDIO
TITLE "Get Out Of Town"
PERFORMER "Roland Kirk"
INDEX 00 02:32:10
FILE "07. Get Out Of Town.flac" WAVE
INDEX 01 00:00:00
TRACK 08 AUDIO
TITLE "Rolando"
PERFORMER "Roland Kirk"
INDEX 00 04:46:62
FILE "08. Rolando.flac" WAVE
INDEX 01 00:00:00
TRACK 09 AUDIO
TITLE "I Believe In You"
PERFORMER "Roland Kirk"
INDEX 00 03:44:15
FILE "09. I Believe In You.flac" WAVE
INDEX 01 00:00:00
TRACK 10 AUDIO
TITLE "E.D."
PERFORMER "Roland Kirk"
INDEX 00 04:23:43
FILE "10. E.D..flac" WAVE
INDEX 01 00:00:00
TRACK 11 AUDIO
TITLE "Where Monk And Mingus Live / Let's Call This"
PERFORMER "Roland Kirk"
INDEX 00 02:20:37
FILE "11. Where Monk And Mingus Live - Let's Call This.flac" WAVE
INDEX 01 00:00:00
TRACK 12 AUDIO
TITLE "Domino"
PERFORMER "Roland Kirk"
INDEX 00 04:06:32
FILE "12. Domino.flac" WAVE
INDEX 01 00:00:00
TRACK 13 AUDIO
TITLE "I Didn't Know What Time It Was"
PERFORMER "Roland Kirk"
INDEX 00 04:03:42
FILE "13. I Didn't Know What Time It Was.flac" WAVE
INDEX 01 00:00:00
TRACK 14 AUDIO
TITLE "I Didn't Know What Time It Was"
PERFORMER "Roland Kirk"
INDEX 00 03:12:62
FILE "14. I Didn't Know What Time It Was.flac" WAVE
INDEX 01 00:00:00
TRACK 15 AUDIO
TITLE "I Didn't Know What Time It Was"
PERFORMER "Roland Kirk"
INDEX 00 02:15:52
FILE "15. I Didn't Know What Time It Was.flac" WAVE
INDEX 01 00:00:00
TRACK 16 AUDIO
TITLE "Someone To Watch Over Me"
PERFORMER "Roland Kirk"
INDEX 00 02:18:20
FILE "16. Someone To Watch Over Me.flac" WAVE
INDEX 01 00:00:00
TRACK 17 AUDIO
TITLE "Someone To Watch Over Me"
PERFORMER "Roland Kirk"
INDEX 00 02:33:65
FILE "17. Someone To Watch Over Me.flac" WAVE
INDEX 01 00:00:00
TRACK 18 AUDIO
TITLE "Termini's Corner"
PERFORMER "Roland Kirk"
INDEX 00 03:34:65
FILE "18. Termini's Corner.flac" WAVE
INDEX 01 00:00:00
TRACK 19 AUDIO
TITLE "Termini's Corner"
PERFORMER "Roland Kirk"
INDEX 00 02:32:30
FILE "19. Termini's Corner.flac" WAVE
INDEX 01 00:00:00
TRACK 20 AUDIO
TITLE "Termini's Corner"
PERFORMER "Roland Kirk"
INDEX 00 02:24:12
FILE "20. Termini's Corner.flac" WAVE
INDEX 01 00:00:00
TRACK 21 AUDIO
TITLE "Termini's Corner"
PERFORMER "Roland Kirk"
INDEX 00 02:38:60
FILE "21. Termini's Corner.flac" WAVE
INDEX 01 00:00:00
INDEX 02 01:47:67
INDEX 03 02:53:47
INDEX 04 03:23:12
INDEX 05 03:36:02
TRACK 22 AUDIO
TITLE "When The Sun Comes Out"
PERFORMER "Roland Kirk"
INDEX 00 04:06:37
FILE "22. When The Sun Comes Out.flac" WAVE
INDEX 01 00:00:00
TRACK 23 AUDIO
TITLE "When The Sun Comes Out"
PERFORMER "Roland Kirk"
INDEX 00 02:38:12
FILE "23. When The Sun Comes Out.flac" WAVE
INDEX 01 00:00:00
TRACK 24 AUDIO
TITLE "When The Sun Comes Out"
PERFORMER "Roland Kirk"
INDEX 00 01:54:08
FILE "24. When The Sun Comes Out.flac" WAVE
INDEX 01 00:00:00
TRACK 25 AUDIO
TITLE "Time Races With Emit"
PERFORMER "Roland Kirk"
INDEX 00 02:41:08
FILE "25. Time Races With Emit.flac" WAVE
INDEX 01 00:00:00
 
Состав
Roland Kirk - flute, tenor sax, vocals, stritch, manzello, nose flute, siren
Henry Duncan - drums
Herbie Hancock - piano
Roy Haynes - drums
Andrew Hill - piano, celeste
Wynton Kelly - piano
Vernon Martin - bass
Приватный:
Нет (DHT включён)
Размер:
577.79 Мб (605,852,704 байт) » файлов: 44
Участники:
0 раздают, 0 качают (0 участников всего)
Внешние участники:
3 раздают, 1 качают (4 участников всего) [ Обновить ]
No seeders - write personal message to M0p94ok. Нет сидеров - пишите в личку M0p94ok.
22:49
161
Нет комментариев. Ваш будет первым!