Поиск

(post-bop|nu-jazz|acoustic) Gregory Privat - Ki Kote - 2011, FLAC (tracks+.cue), lossless

Треклист:
Gregory Privat - Ki Kote
Жанр: jazz | post-bop | nu-jazz| acoustic |
Год выпуска диска: 2011
Год записи альбома: 2011
Производитель диска: Gaya Music Production
Номер по каталогу: GPGCD001
Страна: France
Аудио кодек: FLAC (*.flac)
Тип рипа: tracks+.cue
Битрейт аудио: lossless
Продолжительность: 1:07:57
Источник (релизер): другой трекер, big thanx goes to dtromp
Сканы: да
Треклист:
1. Le Nouvel Esclave
2. Mi Nou La
3. Ki Koté
4. Pa Pè
5. An Fwédi A
6. Kouté Pou tann
7. Fos Ti Moun
8. Kontan Wè Zot
9. An Piano Epi An Ka
10. Run Away
11. Signe Et Sens
Доп. информация - состав:
Grégory Privat : piano / claviers
Faustine Cressot : voix
Renaud Gensane : trompette
Sonny Troupé : batterie / ka (traditional percussion Guadeloupe)
Olivier Juste : ka / percussions
Rafael Paseiro : bass
Nesrine Ghalmi (feat.) : chant
Пианист, карибского происхождения, родился на Мартинике, в 1984 г. Дома Грегори рос под влиянием своего отца Хосе Привата - знаменитого пианиста Malavoi Caribbean group, что и стало основой, краеугольным камнем, для Грегори и его таланта. В 5 сел за клавиши, в 16 начал сочинять собственные произведения, отказался от классического пианино, ушел в джаз и импровизацию. Отучился на инженера в Тулузе, начал выступать сольно, а потом и с трио на джем-сейшнах в местных клубах. На большой сцене он появился в 2005 году на Biguine Jazz Festival of Martinique, потом 2008 Montreux Jazz Festival, 2010 Concours Martial Solal... Хочет в первую очередь покорить парижскую сцену, основал свой бенд Gregory Privat Group...сейчас выступает в самых знаменитых парижских клубах таких как le Baiser Salé, le Duc des Lombards, le New Morning. И вот свет увидел его первый альбом, все произведения его собственного сочинения. Пожелаем ему удачи, по-моему, превосходный дебют!
Лог создания рипа
Exact Audio Copy V1.0 beta 3 from 29. August 2011
EAC extraction logfile from 2. January 2012, 12:26
Gregory Privat / Ki Kote
Used drive : PLEXTOR DVDR PX-860A Adapter: 0 ID: 0
Read mode : Secure
Utilize accurate stream : Yes
Defeat audio cache : Yes
Make use of C2 pointers : No
Read offset correction : 96
Overread into Lead-In and Lead-Out : No
Fill up missing offset samples with silence : Yes
Delete leading and trailing silent blocks : No
Null samples used in CRC calculations : Yes
Used interface : Native Win32 interface for Win NT & 2000
Gap handling : Appended to previous track
Used output format : User Defined Encoder
Selected bitrate : 1024 kBit/s
Quality : High
Add ID3 tag : No
Command line compressor : C:\Program Files\Exact Audio Copy 3\Flac\flac.exe
Additional command line options : -8 -V -T "ARTIST=%artist%" -T "TITLE=%title%" -T "ALBUM=%albumtitle%" -T "DATE=%year%" -T "TRACKNUMBER=%tracknr%" -T "GENRE=%genre%" -T "PERFORMER=%albuminterpret%" -T "COMPOSER=%composer%" %haslyrics%--tag-from-file=LYRICS="%lyricsfile%"%haslyrics% -T "ALBUMARTIST=%albumartist%" -T "DISCNUMBER=%cdnumber%" -T "TOTALDISCS=%totalcds%" -T "TOTALTRACKS=%numtracks%" -T "COMMENT=%comment%" %source% -o %dest%
TOC of the extracted CD
Track | Start | Length | Start sector | End sector
---------------------------------------------------------
1 | 0:00.00 | 4:34.00 | 0 | 20549
2 | 4:34.00 | 5:40.09 | 20550 | 46058
3 | 10:14.09 | 6:27.13 | 46059 | 75096
4 | 16:41.22 | 11:09.56 | 75097 | 125327
5 | 27:51.03 | 6:34.08 | 125328 | 154885
6 | 34:25.11 | 7:36.24 | 154886 | 189109
7 | 42:01.35 | 7:12.13 | 189110 | 221522
8 | 49:13.48 | 5:35.23 | 221523 | 246670
9 | 54:48.71 | 3:50.32 | 246671 | 263952
10 | 58:39.28 | 4:53.34 | 263953 | 285961
11 | 63:32.62 | 4:23.53 | 285962 | 305739
Track 1
Filename S:\DL\Gregory Privat - Ki Kote (2011) [FLAC]\01 - Le Nouvel Esclave.wav
Pre-gap length 0:00:02.00
Peak level 100.0 %
Extraction speed 4.8 X
Track quality 100.0 %
Test CRC 518C528A
Copy CRC 518C528A
Track not present in AccurateRip database
Copy OK
Track 2
Filename S:\DL\Gregory Privat - Ki Kote (2011) [FLAC]\02 - Mi Nou La.wav
Pre-gap length 0:00:01.82
Peak level 100.0 %
Extraction speed 5.4 X
Track quality 100.0 %
Test CRC 3575A78C
Copy CRC 3575A78C
Track not present in AccurateRip database
Copy OK
Track 3
Filename S:\DL\Gregory Privat - Ki Kote (2011) [FLAC]\03 - Ki Kote.wav
Pre-gap length 0:00:02.57
Peak level 100.0 %
Extraction speed 6.0 X
Track quality 100.0 %
Test CRC ADCBD4DD
Copy CRC ADCBD4DD
Track not present in AccurateRip database
Copy OK
Track 4
Filename S:\DL\Gregory Privat - Ki Kote (2011) [FLAC]\04 - Pa Pe.wav
Pre-gap length 0:00:02.26
Peak level 100.0 %
Extraction speed 6.9 X
Track quality 100.0 %
Test CRC FAB02871
Copy CRC FAB02871
Track not present in AccurateRip database
Copy OK
Track 5
Filename S:\DL\Gregory Privat - Ki Kote (2011) [FLAC]\05 - An Fwedi A.wav
Pre-gap length 0:00:02.45
Peak level 100.0 %
Extraction speed 7.1 X
Track quality 100.0 %
Test CRC D9D622AE
Copy CRC D9D622AE
Track not present in AccurateRip database
Copy OK
Track 6
Filename S:\DL\Gregory Privat - Ki Kote (2011) [FLAC]\06 - Koute Pou Tann.wav
Pre-gap length 0:00:02.28
Peak level 100.0 %
Extraction speed 7.6 X
Track quality 100.0 %
Test CRC ABD613D9
Copy CRC ABD613D9
Track not present in AccurateRip database
Copy OK
Track 7
Filename S:\DL\Gregory Privat - Ki Kote (2011) [FLAC]\07 - Fos Ti Moun.wav
Pre-gap length 0:00:02.17
Peak level 97.9 %
Extraction speed 7.9 X
Track quality 100.0 %
Test CRC 7FC5C8D7
Copy CRC 7FC5C8D7
Track not present in AccurateRip database
Copy OK
Track 8
Filename S:\DL\Gregory Privat - Ki Kote (2011) [FLAC]\08 - Kontan We Zot.wav
Pre-gap length 0:00:01.94
Peak level 100.0 %
Extraction speed 7.6 X
Track quality 99.9 %
Test CRC 2F6A9DAB
Copy CRC 2F6A9DAB
Track not present in AccurateRip database
Copy OK
Track 9
Filename S:\DL\Gregory Privat - Ki Kote (2011) [FLAC]\09 - An Piano Epi An Ka.wav
Pre-gap length 0:00:02.20
Peak level 100.0 %
Extraction speed 7.2 X
Track quality 99.9 %
Test CRC AC333518
Copy CRC AC333518
Track not present in AccurateRip database
Copy OK
Track 10
Filename S:\DL\Gregory Privat - Ki Kote (2011) [FLAC]\10 - Run Away.wav
Pre-gap length 0:00:03.10
Peak level 100.0 %
Extraction speed 7.9 X
Track quality 99.9 %
Test CRC C6733761
Copy CRC C6733761
Track not present in AccurateRip database
Copy OK
Track 11
Filename S:\DL\Gregory Privat - Ki Kote (2011) [FLAC]\11 - Signe Et Sens.wav
Pre-gap length 0:00:02.74
Peak level 99.9 %
Extraction speed 8.9 X
Track quality 100.0 %
Test CRC 22C5EE37
Copy CRC 22C5EE37
Track not present in AccurateRip database
Copy OK
None of the tracks are present in the AccurateRip database
No errors occurred
End of status report
---- CUETools DB Plugin V2.1.3
[CTDB TOCID: YW72z2o7FTKL6ibWGClgZ8a7vhQ-] disk not present in database, Submit result: database access error: The request was aborted: The request was canceled.
==== Log checksum 0104A84AB74E688DE4E54052BA7F8F6637552666FBF795D0EDF345A4B4E93BAB ====
 
Cue
REM GENRE Jazz
REM DATE 2011
REM DISCID 8C0FEC0B
REM COMMENT "ExactAudioCopy v1.0b3"
PERFORMER "Gregory Privat"
TITLE "Ki Kote"
FILE "01 - Le Nouvel Esclave.wav" WAVE
TRACK 01 AUDIO
TITLE "Le Nouvel Esclave"
PERFORMER "Gregory Privat"
ISRC FQI310907293
INDEX 01 00:00:00
TRACK 02 AUDIO
TITLE "Mi Nou La"
PERFORMER "Gregory Privat"
ISRC FQI310907294
INDEX 00 04:32:13
FILE "02 - Mi Nou La.wav" WAVE
INDEX 01 00:00:00
TRACK 03 AUDIO
TITLE "Ki Kote"
PERFORMER "Gregory Privat"
ISRC FQI310907295
INDEX 00 05:37:41
FILE "03 - Ki Kote.wav" WAVE
INDEX 01 00:00:00
TRACK 04 AUDIO
TITLE "Pa Pe"
PERFORMER "Gregory Privat"
ISRC FQI310907296
INDEX 00 06:24:68
FILE "04 - Pa Pe.wav" WAVE
INDEX 01 00:00:00
TRACK 05 AUDIO
TITLE "An Fwedi A"
PERFORMER "Gregory Privat"
ISRC FQI310907297
INDEX 00 11:07:22
FILE "05 - An Fwedi A.wav" WAVE
INDEX 01 00:00:00
TRACK 06 AUDIO
TITLE "Koute Pou Tann"
PERFORMER "Gregory Privat"
ISRC FQI310907298
INDEX 00 06:31:62
FILE "06 - Koute Pou Tann.wav" WAVE
INDEX 01 00:00:00
TRACK 07 AUDIO
TITLE "Fos Ti Moun"
PERFORMER "Gregory Privat"
ISRC FQI310907299
INDEX 00 07:34:11
FILE "07 - Fos Ti Moun.wav" WAVE
INDEX 01 00:00:00
TRACK 08 AUDIO
TITLE "Kontan We Zot"
PERFORMER "Gregory Privat"
ISRC FQI310907300
INDEX 00 07:10:17
FILE "08 - Kontan We Zot.wav" WAVE
INDEX 01 00:00:00
TRACK 09 AUDIO
TITLE "An Piano Epi An Ka "
PERFORMER "Gregory Privat"
ISRC FQI310907301
INDEX 00 05:33:08
FILE "09 - An Piano Epi An Ka.wav" WAVE
INDEX 01 00:00:00
TRACK 10 AUDIO
TITLE "Run Away"
PERFORMER "Gregory Privat"
ISRC FQI310907302
INDEX 00 03:47:24
FILE "10 - Run Away.wav" WAVE
INDEX 01 00:00:00
TRACK 11 AUDIO
TITLE "Signe Et Sens "
PERFORMER "Gregory Privat"
ISRC FQI310907303
INDEX 00 04:50:53
FILE "11 - Signe Et Sens.wav" WAVE
INDEX 01 00:00:00

Не забываем нажать - сказать "Спасибо"
Приватный:
Нет (DHT включён)
Размер:
447.28 Мб (469,011,383 байт) » файлов: 21
Участники:
0 раздают, 0 качают (0 участников всего)
Внешние участники:
5 раздают, 1 качают (6 участников всего) [ Обновить ]
For power users only: no seeders - write personal message to M0p94ok. Для power user: нет сидеров - пишите в личку M0p94ok.
19:54
168
Нет комментариев. Ваш будет первым!