Вы используете незарегистрированную версию компонента "Вкладки"!

Поиск

(Post Bop, Modern Creative) Ray Anderson - Every One Of Us - 1992, APE (image+.cue) lossless

Треклист:
Ray Anderson / Every One Of Us
Жанр: Post Bop, Modern Creative
Страна-производитель диска: US
Год издания диска: 1992
Издатель (лейбл): Gramavision
Номер по каталогу: R2 79471
Страна: US
Аудио кодек: APE (*.ape)
Тип рипа: image+.cue
Битрейт аудио: lossless
Продолжительность: 52:11
Источник (релизер): nnm.ru
Наличие сканов в содержимом раздачи: да
Треклист:
1 Funkalific 5:58
2 Brother, Can You Spare A Dime? 8:05
Composed By – E. V. Harburg, J. Gorney
3 Kinda Garnerish 9:59
4 Muddy And Willie 10:10
5 Snoo Tune (For Anabel) 4:00
6 Lady Day 6:24
Composed By – Wayne Shorter
7 Dear Lord 7:26
Composed By – John Coltrane
 
Лог создания рипа
Exact Audio Copy V0.99 prebeta 5 from 4. May 2009
EAC extraction logfile from 11. November 2010, 22:39
Ray Anderson / Every One Of Us
Used drive : TSSTcorpDVD+-RW TS-U633A Adapter: 0 ID: 1
Read mode : Secure
Utilize accurate stream : Yes
Defeat audio cache : Yes
Make use of C2 pointers : No
Read offset correction : 6
Overread into Lead-In and Lead-Out : No
Fill up missing offset samples with silence : Yes
Delete leading and trailing silent blocks : No
Null samples used in CRC calculations : Yes
Used interface : Native Win32 interface for Win NT & 2000
Used output format : Internal WAV Routines
Sample format : 44.100 Hz; 16 Bit; Stereo
TOC of the extracted CD
Track | Start | Length | Start sector | End sector
---------------------------------------------------------
1 | 0:00.33 | 5:58.60 | 33 | 26942
2 | 5:59.18 | 8:05.47 | 26943 | 63364
3 | 14:04.65 | 10:00.40 | 63365 | 108404
4 | 24:05.30 | 10:11.18 | 108405 | 154247
5 | 34:16.48 | 4:02.07 | 154248 | 172404
6 | 38:18.55 | 6:27.18 | 172405 | 201447
7 | 44:45.73 | 7:25.37 | 201448 | 234859
Range status and errors
Selected range
Filename C:\_Arc\EAC_Out\Ray Anderson - Every One Of Us\Ray Anderson - Every One Of Us.wav
Peak level 100.0 %
Range quality 100.0 %
Copy CRC 687FE3C9
Copy OK
No errors occurred
AccurateRip summary
Track 1 accurately ripped (confidence 7) [D104B73D]
Track 2 accurately ripped (confidence 7) [6CF2B072]
Track 3 accurately ripped (confidence 7) [4311D4C8]
Track 4 accurately ripped (confidence 7) [42954A1F]
Track 5 accurately ripped (confidence 8) [F1B0F74C]
Track 6 accurately ripped (confidence 7) [36546541]
Track 7 accurately ripped (confidence 7) [58882147]
All tracks accurately ripped
End of status report
 
Содержание индексной карты (.CUE)
REM GENRE Jazz
REM DATE 1992
REM DISCID 590C3B07
REM COMMENT "ExactAudioCopy v0.99pb5"
PERFORMER "Ray Anderson"
TITLE "Every One Of Us"
FILE "Ray Anderson - Every One Of Us.ape" WAVE
TRACK 01 AUDIO
TITLE "Funkalific"
PERFORMER "Ray Anderson"
INDEX 00 00:00:00
INDEX 01 00:00:33
TRACK 02 AUDIO
TITLE "Brother, Can You Spare A Dime?"
PERFORMER "Ray Anderson"
INDEX 00 05:56:53
INDEX 01 05:59:18
TRACK 03 AUDIO
TITLE "Kinda Garnerish"
PERFORMER "Ray Anderson"
INDEX 00 14:04:28
INDEX 01 14:04:65
TRACK 04 AUDIO
TITLE "Muddy and Willie"
PERFORMER "Ray Anderson"
INDEX 00 24:03:58
INDEX 01 24:05:30
TRACK 05 AUDIO
TITLE "Snoo Tune (for Anabel)"
PERFORMER "Ray Anderson"
INDEX 00 34:15:35
INDEX 01 34:16:48
TRACK 06 AUDIO
TITLE "Lady Day"
PERFORMER "Ray Anderson"
INDEX 00 38:17:35
INDEX 01 38:18:55
TRACK 07 AUDIO
TITLE "Dear Lord"
PERFORMER "Ray Anderson"
INDEX 00 44:43:35
INDEX 01 44:45:73
 
Лог проверки качества
d:\>d:\aucdtect -d/-m0 d:\zzz\*.wav
auCDtect: CD records authenticity detector, version 0.8.2
Copyright (c) 2004 Oleg Berngardt. All rights reserved.
Copyright (c) 2004 Alexander Djourik. All rights reserved.
------------------------------------------------------------
Processing file: [01. Funkalific.wav]
------------------------------------------------------------
This track looks like CDDA with probability 100%
------------------------------------------------------------
Processing file: [02. Brother, Can You Spare A Dime_.wav]
------------------------------------------------------------
This track looks like CDDA with probability 100%
------------------------------------------------------------
Processing file: [03. Kinda Garnerish.wav]
------------------------------------------------------------
This track looks like CDDA with probability 99%
------------------------------------------------------------
Processing file: [04. Muddy and Willie.wav]
------------------------------------------------------------
This track looks like CDDA with probability 100%
------------------------------------------------------------
Processing file: [05. Snoo Tune (for Anabel).wav]
------------------------------------------------------------
This track looks like CDDA with probability 100%
------------------------------------------------------------
Processing file: [06. Lady Day.wav]
------------------------------------------------------------
This track looks like CDDA with probability 100%
------------------------------------------------------------
Processing file: [07. Dear Lord.wav]
------------------------------------------------------------
This track looks like CDDA with probability 100%
------------------------------------------------------------
Final Conclusion:
------------------------------------------------------------
These tracks looks like CDDA with probability 100%
 
Скриншот спектра частот
Доп. информация:
 
Album Info
Recorded in June 1992 at Power Station, New York.
 
Состав
* Bass [Acoustic] – Charlie Haden
* Composed By – Ray Anderson (tracks: 1, 3 to 5)
* Drums – Ed Blackwell
* Engineer [Mastering] – Allan Tucker
* Engineer [Recording] – Jim Anderson
* Executive Producer – Joanna FitzPatrick
* Piano – Simon Nabatov
* Producer – Mark Helias
* Trombone, Vocals, Producer – Ray Anderson
Any questions -> support@pro-jazz.com. По всем вопросам пишите -> support@pro-jazz.com
11:52
194
Нет комментариев. Ваш будет первым!